<svg xmlns="http://www.w3.org/2000/svg">
<defs>
<font
       vert-adv-y="1024"
       vert-origin-y="768"
       vert-origin-x="512"
       horiz-origin-y="0"
       horiz-origin-x="0"
       horiz-adv-x="2048"
       id="EmbeddedFont_1">
      <font-face
         id="font-face7"
         descent="450"
         ascent="1852"
         units-per-em="2048"
         font-family="Arial embedded" />
      <missing-glyph
         id="missing-glyph9"
         horiz-adv-x="2048">
        <path
           id="path11"
           d="M 0,2048 L 2047,2048 2047,1 0,1 0,2048 Z"
           style="fill:none;stroke:black;stroke-width:33" />
      </missing-glyph>
      <glyph
         id="glyph13"
         horiz-adv-x="979"
         unicode=" " />
      <glyph
         id="glyph15"
         horiz-adv-x="530"
         unicode="-">
        <path
           id="path17"
           d="M 65,440 L 65,621 618,621 618,440 65,440 Z" />
      </glyph>
      <glyph
         id="glyph19"
         horiz-adv-x="1244"
         unicode="C">
        <path
           id="path21"
           d="M 1204,514 L 1398,465 C 1357,306 1284,184 1179,101 1073,17 944,-25 791,-25 633,-25 505,7 406,72 307,136 231,229 180,351 128,473 102,604 102,744 102,897 131,1030 190,1144 248,1257 331,1344 439,1403 546,1462 665,1491 794,1491 941,1491 1064,1454 1164,1379 1264,1304 1334,1199 1373,1064 L 1182,1019 C 1148,1126 1099,1203 1034,1252 969,1301 888,1325 790,1325 677,1325 583,1298 508,1244 432,1190 379,1118 348,1027 317,936 302,842 302,745 302,620 320,512 357,419 393,326 449,256 526,210 603,164 686,141 775,141 884,141 976,172 1051,235 1126,298 1177,391 1204,514 Z" />
      </glyph>
      <glyph
         id="glyph23"
         horiz-adv-x="1138"
         unicode="H">
        <path
           id="path25"
           d="M 164,0 L 164,1466 358,1466 358,864 1120,864 1120,1466 1314,1466 1314,0 1120,0 1120,691 358,691 358,0 164,0 Z" />
      </glyph>
      <glyph
         id="glyph27"
         horiz-adv-x="1138"
         unicode="N">
        <path
           id="path29"
           d="M 156,0 L 156,1466 355,1466 1125,315 1125,1466 1311,1466 1311,0 1112,0 342,1152 342,0 156,0 Z" />
      </glyph>
      <glyph
         id="glyph31"
         horiz-adv-x="1350"
         unicode="Q">
        <path
           id="path33"
           d="M 1269,157 C 1359,95 1442,50 1518,21 L 1461,-114 C 1356,-76 1251,-16 1146,66 1037,5 917,-25 786,-25 653,-25 533,7 425,71 317,135 234,225 176,341 117,457 88,588 88,733 88,878 117,1009 176,1128 235,1247 318,1337 427,1399 535,1461 656,1492 790,1492 925,1492 1047,1460 1156,1396 1265,1331 1348,1241 1405,1126 1462,1010 1490,879 1490,734 1490,613 1472,505 1435,409 1398,312 1343,228 1269,157 Z M 842,405 C 954,374 1046,327 1119,265 1233,369 1290,525 1290,734 1290,853 1270,956 1230,1045 1189,1134 1130,1203 1053,1252 975,1301 888,1325 791,1325 646,1325 526,1276 431,1177 336,1078 288,930 288,733 288,542 335,396 430,294 524,192 644,141 791,141 860,141 926,154 987,180 926,219 862,247 795,264 L 842,405 Z" />
      </glyph>
      <glyph
         id="glyph35"
         horiz-adv-x="1112"
         unicode="S">
        <path
           id="path37"
           d="M 92,471 L 275,487 C 284,414 304,354 336,307 367,260 416,222 483,193 550,164 625,149 708,149 782,149 847,160 904,182 961,204 1003,234 1031,273 1058,311 1072,353 1072,398 1072,444 1059,484 1032,519 1005,553 961,582 900,605 861,620 774,644 639,677 504,709 410,739 356,768 286,805 234,850 200,905 165,959 148,1020 148,1087 148,1161 169,1230 211,1295 253,1359 314,1408 395,1441 476,1474 565,1491 664,1491 773,1491 869,1474 952,1439 1035,1404 1098,1352 1143,1284 1188,1216 1212,1139 1215,1053 L 1029,1039 C 1019,1132 985,1202 928,1249 870,1296 785,1320 672,1320 555,1320 469,1299 416,1256 362,1213 335,1161 335,1100 335,1047 354,1004 392,970 429,936 527,901 685,866 842,830 950,799 1009,772 1094,733 1157,683 1198,623 1239,562 1259,493 1259,414 1259,336 1237,263 1192,194 1147,125 1083,71 1000,33 916,-6 822,-25 717,-25 584,-25 473,-6 384,33 294,72 224,130 173,208 122,285 95,373 92,471 Z" />
      </glyph>
      <glyph
         id="glyph39"
         horiz-adv-x="1112"
         unicode="T">
        <path
           id="path41"
           d="M 531,0 L 531,1293 48,1293 48,1466 1210,1466 1210,1293 725,1293 725,0 531,0 Z" />
      </glyph>
      <glyph
         id="glyph43"
         horiz-adv-x="954"
         unicode="a">
        <path
           id="path45"
           d="M 828,131 C 761,74 697,34 636,11 574,-12 508,-24 437,-24 320,-24 231,5 168,62 105,119 74,191 74,280 74,332 86,380 110,423 133,466 164,500 203,526 241,552 284,572 332,585 367,594 421,603 492,612 637,629 744,650 813,674 814,699 814,714 814,721 814,794 797,846 763,876 717,917 649,937 558,937 473,937 411,922 371,893 330,863 300,810 281,735 L 105,759 C 121,834 147,895 184,942 221,988 274,1024 343,1049 412,1074 493,1086 584,1086 675,1086 748,1075 805,1054 862,1033 903,1006 930,974 957,941 975,900 986,851 992,820 995,765 995,685 L 995,445 C 995,278 999,172 1007,128 1014,83 1029,41 1052,0 L 864,0 C 845,37 833,81 828,131 Z M 813,533 C 748,506 650,484 519,465 445,454 393,442 362,429 331,416 308,396 291,371 274,345 266,316 266,285 266,237 284,197 321,165 357,133 410,117 480,117 549,117 611,132 665,163 719,193 759,234 784,287 803,328 813,388 813,467 L 813,533 Z" />
      </glyph>
      <glyph
         id="glyph47"
         horiz-adv-x="927"
         unicode="c">
        <path
           id="path49"
           d="M 828,389 L 1005,366 C 986,244 936,149 857,80 777,11 679,-24 563,-24 418,-24 301,24 213,119 124,214 80,350 80,527 80,642 99,742 137,828 175,914 233,979 311,1022 388,1065 473,1086 564,1086 679,1086 774,1057 847,999 920,940 967,857 988,750 L 813,723 C 796,794 767,848 725,884 682,920 631,938 571,938 480,938 407,906 350,841 293,776 265,673 265,532 265,389 292,286 347,221 402,156 473,124 561,124 632,124 691,146 738,189 785,232 815,299 828,389 Z" />
      </glyph>
      <glyph
         id="glyph51"
         horiz-adv-x="901"
         unicode="d">
        <path
           id="path53"
           d="M 824,0 L 824,134 C 757,29 658,-24 527,-24 442,-24 365,-1 294,46 223,93 168,158 129,242 90,325 70,421 70,530 70,636 88,732 123,819 158,905 211,971 282,1017 353,1063 432,1086 519,1086 583,1086 640,1073 690,1046 740,1019 781,983 812,940 L 812,1466 991,1466 991,0 824,0 Z M 255,530 C 255,394 284,292 341,225 398,158 466,124 544,124 623,124 690,156 745,221 800,285 827,383 827,515 827,660 799,767 743,835 687,903 618,937 536,937 456,937 389,904 336,839 282,774 255,671 255,530 Z" />
      </glyph>
      <glyph
         id="glyph55"
         horiz-adv-x="954"
         unicode="e">
        <path
           id="path57"
           d="M 862,342 L 1048,319 C 1019,210 964,126 885,66 806,6 704,-24 581,-24 426,-24 303,24 212,120 121,215 75,349 75,522 75,701 121,839 213,938 305,1037 424,1086 571,1086 713,1086 829,1038 919,941 1009,844 1054,708 1054,533 1054,522 1054,506 1053,485 L 261,485 C 268,368 301,279 360,217 419,155 493,124 582,124 648,124 704,141 751,176 798,211 835,266 862,342 Z M 271,633 L 864,633 C 856,722 833,789 796,834 739,903 664,938 573,938 490,938 421,910 365,855 308,800 277,726 271,633 Z" />
      </glyph>
      <glyph
         id="glyph59"
         horiz-adv-x="610"
         unicode="f">
        <path
           id="path61"
           d="M 178,0 L 178,922 19,922 19,1062 178,1062 178,1175 C 178,1246 184,1299 197,1334 214,1381 245,1419 289,1448 332,1477 393,1491 472,1491 523,1491 579,1485 640,1473 L 613,1316 C 576,1323 540,1326 507,1326 452,1326 414,1314 391,1291 368,1268 357,1224 357,1160 L 357,1062 564,1062 564,922 357,922 357,0 178,0 Z" />
      </glyph>
      <glyph
         id="glyph63"
         horiz-adv-x="160"
         unicode="i">
        <path
           id="path65"
           d="M 136,1259 L 136,1466 316,1466 316,1259 136,1259 Z M 136,0 L 136,1062 316,1062 316,0 136,0 Z" />
      </glyph>
      <glyph
         id="glyph67"
         horiz-adv-x="160"
         unicode="l">
        <path
           id="path69"
           d="M 131,0 L 131,1466 311,1466 311,0 131,0 Z" />
      </glyph>
      <glyph
         id="glyph71"
         horiz-adv-x="1430"
         unicode="m">
        <path
           id="path73"
           d="M 135,0 L 135,1062 296,1062 296,913 C 329,965 374,1007 429,1039 484,1070 547,1086 618,1086 697,1086 761,1070 812,1037 862,1004 897,959 918,900 1002,1024 1111,1086 1246,1086 1351,1086 1432,1057 1489,999 1546,940 1574,850 1574,729 L 1574,0 1395,0 1395,669 C 1395,741 1389,793 1378,825 1366,856 1345,882 1314,901 1283,920 1247,930 1206,930 1131,930 1069,905 1020,856 971,806 946,726 946,617 L 946,0 766,0 766,690 C 766,770 751,830 722,870 693,910 645,930 578,930 527,930 481,917 438,890 395,863 363,824 344,773 325,722 315,648 315,551 L 315,0 135,0 Z" />
      </glyph>
      <glyph
         id="glyph75"
         horiz-adv-x="848"
         unicode="n">
        <path
           id="path77"
           d="M 135,0 L 135,1062 297,1062 297,911 C 375,1028 488,1086 635,1086 699,1086 758,1075 812,1052 865,1029 905,998 932,961 959,924 977,879 988,828 995,795 998,736 998,653 L 998,0 818,0 818,646 C 818,719 811,774 797,811 783,847 758,876 723,898 687,919 645,930 597,930 520,930 454,906 399,857 343,808 315,716 315,580 L 315,0 135,0 Z" />
      </glyph>
      <glyph
         id="glyph79"
         horiz-adv-x="954"
         unicode="o">
        <path
           id="path81"
           d="M 68,531 C 68,728 123,873 232,968 323,1047 435,1086 566,1086 712,1086 831,1038 924,943 1017,847 1063,715 1063,546 1063,409 1043,302 1002,224 961,145 901,84 823,41 744,-2 659,-24 566,-24 417,-24 297,24 206,119 114,214 68,352 68,531 Z M 253,531 C 253,395 283,293 342,226 401,158 476,124 566,124 655,124 730,158 789,226 848,294 878,398 878,537 878,668 848,768 789,836 729,903 655,937 566,937 476,937 401,903 342,836 283,769 253,667 253,531 Z" />
      </glyph>
      <glyph
         id="glyph83"
         horiz-adv-x="901"
         unicode="p">
        <path
           id="path85"
           d="M 135,-407 L 135,1062 299,1062 299,924 C 338,978 381,1019 430,1046 479,1073 538,1086 607,1086 698,1086 778,1063 847,1016 916,969 969,904 1004,819 1039,734 1057,640 1057,539 1057,430 1038,333 999,246 960,159 903,92 829,46 754,-1 676,-24 594,-24 534,-24 480,-11 433,14 385,39 346,71 315,110 L 315,-407 135,-407 Z M 298,525 C 298,388 326,287 381,222 436,157 503,124 582,124 662,124 731,158 788,226 845,293 873,398 873,540 873,675 845,777 790,844 734,911 667,945 590,945 513,945 446,909 387,838 328,766 298,662 298,525 Z" />
      </glyph>
      <glyph
         id="glyph87"
         horiz-adv-x="901"
         unicode="q">
        <path
           id="path89"
           d="M 812,-407 L 812,113 C 784,74 745,41 695,15 644,-11 591,-24 534,-24 408,-24 300,26 209,127 118,228 72,366 72,541 72,648 91,743 128,828 165,913 218,977 289,1021 359,1064 436,1086 520,1086 651,1086 755,1031 830,920 L 830,1062 992,1062 992,-407 812,-407 Z M 257,534 C 257,397 286,295 343,227 400,158 469,124 549,124 626,124 692,157 747,222 802,287 830,385 830,518 830,659 801,766 743,837 684,908 616,944 537,944 459,944 393,911 339,845 284,778 257,675 257,534 Z" />
      </glyph>
      <glyph
         id="glyph91"
         horiz-adv-x="557"
         unicode="r">
        <path
           id="path93"
           d="M 133,0 L 133,1062 295,1062 295,901 C 336,976 375,1026 410,1050 445,1074 483,1086 525,1086 586,1086 647,1067 710,1028 L 648,861 C 604,887 560,900 516,900 477,900 441,888 410,865 379,841 356,808 343,766 323,702 313,632 313,556 L 313,0 133,0 Z" />
      </glyph>
      <glyph
         id="glyph95"
         horiz-adv-x="848"
         unicode="s">
        <path
           id="path97"
           d="M 63,317 L 241,345 C 251,274 279,219 325,181 370,143 434,124 516,124 599,124 660,141 700,175 740,208 760,248 760,293 760,334 742,366 707,389 682,405 621,425 523,450 391,483 300,512 249,537 198,561 159,595 133,638 106,681 93,728 93,780 93,827 104,871 126,912 147,952 177,985 214,1012 242,1033 280,1050 329,1065 377,1079 429,1086 484,1086 567,1086 641,1074 704,1050 767,1026 813,994 843,953 873,912 894,857 905,788 L 729,764 C 721,819 698,861 660,892 621,923 567,938 497,938 414,938 355,924 320,897 285,870 267,838 267,801 267,778 274,757 289,738 304,719 327,703 358,690 376,683 429,668 517,644 644,610 733,582 784,561 834,539 873,507 902,466 931,425 945,373 945,312 945,252 928,196 893,143 858,90 807,49 741,20 675,-9 600,-24 517,-24 379,-24 274,5 202,62 129,119 83,204 63,317 Z" />
      </glyph>
      <glyph
         id="glyph99"
         horiz-adv-x="504"
         unicode="t">
        <path
           id="path101"
           d="M 528,161 L 554,2 C 503,-9 458,-14 418,-14 353,-14 302,-4 266,17 230,38 205,65 190,99 175,132 168,203 168,311 L 168,922 36,922 36,1062 168,1062 168,1325 347,1433 347,1062 528,1062 528,922 347,922 347,301 C 347,250 350,217 357,202 363,187 373,176 388,167 402,158 422,154 449,154 469,154 495,156 528,161 Z" />
      </glyph>
      <glyph
         id="glyph103"
         horiz-adv-x="848"
         unicode="u">
        <path
           id="path105"
           d="M 831,0 L 831,156 C 748,36 636,-24 494,-24 431,-24 373,-12 319,12 264,36 224,66 198,103 171,139 153,183 142,236 135,271 131,327 131,404 L 131,1062 311,1062 311,473 C 311,379 315,316 322,283 333,236 357,199 394,172 431,145 476,131 530,131 584,131 635,145 682,173 729,200 763,238 783,286 802,333 812,402 812,493 L 812,1062 992,1062 992,0 831,0 Z" />
      </glyph>
      <glyph
         id="glyph107"
         horiz-adv-x="954"
         unicode="v">
        <path
           id="path109"
           d="M 430,0 L 26,1062 216,1062 444,426 C 469,357 491,286 512,212 528,268 550,335 579,414 L 815,1062 1000,1062 598,0 430,0 Z" />
      </glyph>
      <glyph
         id="glyph111"
         horiz-adv-x="980"
         unicode="x">
        <path
           id="path113"
           d="M 15,0 L 403,552 44,1062 269,1062 432,813 C 463,766 487,726 506,694 535,738 562,777 587,811 L 766,1062 981,1062 614,562 1009,0 788,0 570,330 512,419 233,0 15,0 Z" />
      </glyph>
      <glyph
         id="glyph115"
         horiz-adv-x="901"
         unicode="z">
        <path
           id="path117"
           d="M 40,0 L 40,146 716,922 C 639,918 572,916 513,916 L 80,916 80,1062 948,1062 948,943 373,269 262,146 C 343,152 418,155 489,155 L 980,155 980,0 40,0 Z" />
      </glyph>
      <glyph
         id="glyph119"
         horiz-adv-x="954"
         unicode="è">
        <path
           id="path121"
           d="M 862,342 L 1048,319 C 1019,210 964,126 885,66 806,6 704,-24 581,-24 426,-24 303,24 212,120 121,215 75,349 75,522 75,701 121,839 213,938 305,1037 424,1086 571,1086 713,1086 829,1038 919,941 1009,844 1054,708 1054,533 1054,522 1054,506 1053,485 L 261,485 C 268,368 301,279 360,217 419,155 493,124 582,124 648,124 704,141 751,176 798,211 835,266 862,342 Z M 271,633 L 864,633 C 856,722 833,789 796,834 739,903 664,938 573,938 490,938 421,910 365,855 308,800 277,726 271,633 Z M 686,1194 L 541,1194 310,1474 551,1474 686,1194 Z" />
      </glyph>
      <glyph
         id="glyph123"
         horiz-adv-x="954"
         unicode="é">
        <path
           id="path125"
           d="M 862,342 L 1048,319 C 1019,210 964,126 885,66 806,6 704,-24 581,-24 426,-24 303,24 212,120 121,215 75,349 75,522 75,701 121,839 213,938 305,1037 424,1086 571,1086 713,1086 829,1038 919,941 1009,844 1054,708 1054,533 1054,522 1054,506 1053,485 L 261,485 C 268,368 301,279 360,217 419,155 493,124 582,124 648,124 704,141 751,176 798,211 835,266 862,342 Z M 271,633 L 864,633 C 856,722 833,789 796,834 739,903 664,938 573,938 490,938 421,910 365,855 308,800 277,726 271,633 Z M 465,1194 L 598,1474 834,1474 614,1194 465,1194 Z" />
      </glyph>
    </font>
    <desc
       id="desc226">Slide</desc>
    <desc
       id="desc230">OLE2</desc>
  </defs>
  <defs
     id="defs127">
    <font
       vert-adv-y="1024"
       vert-origin-y="768"
       vert-origin-x="512"
       horiz-origin-y="0"
       horiz-origin-x="0"
       horiz-adv-x="2048"
       id="EmbeddedFont_2">
      <font-face
         id="font-face130"
         descent="397"
         ascent="1640"
         units-per-em="2048"
         font-family="StarSymbol embedded" />
      <missing-glyph
         id="missing-glyph132"
         horiz-adv-x="2048">
        <path
           id="path134"
           d="M 0,2048 L 2047,2048 2047,1 0,1 0,2048 Z"
           style="fill:none;stroke:black;stroke-width:33" />
      </missing-glyph>
      <glyph
         id="glyph136"
         horiz-adv-x="1138"
         unicode="–">
        <path
           id="path138"
           d="M -4,459 L 1135,459 1135,606 -4,606 -4,459 Z" />
      </glyph>
      <glyph
         id="glyph140"
         horiz-adv-x="1165"
         unicode="●">
        <path
           id="path142"
           d="M 813,0 C 632,0 489,54 383,161 276,268 223,411 223,592 223,773 276,916 383,1023 489,1130 632,1184 813,1184 992,1184 1136,1130 1245,1023 1353,916 1407,772 1407,592 1407,412 1353,268 1245,161 1136,54 992,0 813,0 Z" />
      </glyph>
    </font>
  </defs>
  <defs
     id="defs144">
    <font
       vert-adv-y="1024"
       vert-origin-y="768"
       vert-origin-x="512"
       horiz-origin-y="0"
       horiz-origin-x="0"
       horiz-adv-x="2048"
       id="EmbeddedFont_3">
      <font-face
         id="font-face147"
         descent="503"
         ascent="1826"
         units-per-em="2048"
         font-family="Times New Roman embedded" />
      <missing-glyph
         id="missing-glyph149"
         horiz-adv-x="2048">
        <path
           id="path151"
           d="M 0,2048 L 2047,2048 2047,1 0,1 0,2048 Z"
           style="fill:none;stroke:black;stroke-width:33" />
      </missing-glyph>
      <glyph
         id="glyph153"
         horiz-adv-x="504"
         unicode="1">
        <path
           id="path155"
           d="M 240,1223 L 570,1384 603,1384 603,239 C 603,163 606,116 613,97 619,78 632,64 652,54 672,44 713,38 774,37 L 774,0 264,0 264,37 C 328,38 369,44 388,54 407,63 420,76 427,93 434,109 438,158 438,239 L 438,971 C 438,1070 435,1133 428,1161 423,1182 415,1198 403,1208 390,1218 375,1223 358,1223 333,1223 299,1213 255,1192 L 240,1223 Z" />
      </glyph>
    </font>
  </defs>
  <defs
     id="defs157">
    <font
       vert-adv-y="1024"
       vert-origin-y="768"
       vert-origin-x="512"
       horiz-origin-y="0"
       horiz-origin-x="0"
       horiz-adv-x="2048"
       id="EmbeddedFont_4">
      <font-face
         id="font-face160"
         descent="556"
         ascent="1931"
         units-per-em="2048"
         font-family="Calibri embedded" />
      <missing-glyph
         id="missing-glyph162"
         horiz-adv-x="2048">
        <path
           id="path164"
           d="M 0,2048 L 2047,2048 2047,1 0,1 0,2048 Z"
           style="fill:none;stroke:black;stroke-width:33" />
      </missing-glyph>
      <glyph
         id="glyph166"
         horiz-adv-x="901"
         unicode="0">
        <path
           id="path168"
           d="M 967,650 C 967,551 959,460 944,378 928,296 902,226 866,167 829,108 782,62 723,30 664,-3 592,-19 506,-19 425,-19 356,-4 301,25 245,54 200,96 166,153 132,209 108,278 94,361 79,443 72,537 72,644 72,743 80,833 96,916 112,998 138,1069 174,1128 210,1187 257,1232 316,1265 375,1297 447,1313 532,1313 614,1313 683,1299 739,1270 794,1241 839,1198 873,1142 907,1085 931,1016 946,934 960,851 967,757 967,650 Z M 791,638 C 791,703 789,761 784,812 779,863 773,909 764,948 755,987 743,1021 729,1050 714,1078 697,1101 677,1120 657,1138 634,1151 609,1160 583,1168 554,1172 522,1172 465,1172 419,1159 384,1132 349,1105 321,1069 301,1022 280,975 266,921 259,858 252,795 248,728 248,656 248,559 253,477 263,410 273,342 289,287 311,244 332,201 360,170 394,151 427,132 468,122 516,122 553,122 586,128 615,140 643,152 667,169 688,192 708,214 725,241 738,272 751,303 762,338 770,376 778,414 784,455 787,500 790,544 791,590 791,638 Z" />
      </glyph>
      <glyph
         id="glyph170"
         horiz-adv-x="742"
         unicode="1">
        <path
           id="path172"
           d="M 927,68 C 927,55 926,45 924,36 922,27 919,20 916,15 913,10 909,6 905,4 900,1 896,0 891,0 L 215,0 C 210,0 206,1 202,4 198,6 194,10 191,15 187,20 184,27 182,36 180,45 179,55 179,68 179,80 180,90 182,99 184,108 187,115 190,121 193,126 196,131 201,134 205,137 210,138 215,138 L 485,138 485,1122 235,973 C 222,966 212,962 205,961 197,960 191,961 186,966 181,970 178,977 177,987 175,997 174,1010 174,1025 174,1036 175,1046 176,1054 177,1062 178,1069 180,1074 182,1079 185,1084 189,1088 192,1092 197,1096 203,1100 L 501,1291 C 504,1293 507,1295 511,1296 515,1297 520,1299 526,1300 532,1301 539,1302 547,1303 555,1303 565,1303 577,1303 593,1303 606,1302 617,1301 628,1300 636,1298 642,1296 648,1293 652,1290 654,1287 656,1283 657,1279 657,1275 L 657,138 891,138 C 896,138 901,137 906,134 911,131 915,126 918,121 921,115 923,108 925,99 926,90 927,80 927,68 Z" />
      </glyph>
      <glyph
         id="glyph174"
         horiz-adv-x="795"
         unicode="2">
        <path
           id="path176"
           d="M 924,74 C 924,62 923,51 922,42 920,33 918,25 915,19 912,12 908,8 903,5 898,2 892,0 886,0 L 171,0 C 162,0 154,1 147,4 140,6 134,10 129,15 124,20 120,28 118,38 115,48 114,60 114,75 114,88 115,100 116,110 117,120 119,129 122,137 126,144 130,152 135,160 140,167 147,175 155,184 L 414,450 C 474,511 522,566 558,615 594,664 622,708 641,748 661,788 674,824 680,857 686,890 689,920 689,949 689,978 684,1005 675,1031 665,1056 651,1079 633,1098 615,1117 592,1133 564,1144 537,1155 505,1161 469,1161 427,1161 390,1155 356,1144 323,1133 294,1120 269,1107 243,1094 222,1081 206,1070 189,1059 176,1053 168,1053 163,1053 159,1054 155,1057 151,1060 148,1064 146,1070 143,1076 141,1084 140,1094 139,1104 138,1116 138,1130 138,1140 138,1149 139,1156 140,1163 141,1170 143,1175 144,1180 146,1185 149,1190 152,1195 157,1201 165,1208 173,1215 187,1224 207,1236 226,1248 251,1260 281,1272 310,1283 343,1293 379,1301 414,1309 452,1313 491,1313 554,1313 609,1304 656,1287 703,1269 742,1245 773,1214 804,1183 827,1148 842,1107 857,1066 865,1023 865,977 865,936 861,895 854,854 847,813 831,768 808,721 784,673 750,620 705,562 660,503 601,436 527,360 L 322,146 885,146 C 890,146 896,145 901,142 906,139 910,134 914,128 917,122 920,115 922,106 923,97 924,86 924,74 Z" />
      </glyph>
      <glyph
         id="glyph178"
         horiz-adv-x="822"
         unicode="3">
        <path
           id="path180"
           d="M 914,370 C 914,311 904,257 883,210 862,162 833,121 794,87 755,53 708,27 651,9 594,-10 530,-19 459,-19 416,-19 375,-15 338,-8 300,-1 266,7 237,17 208,26 183,36 164,47 145,57 133,64 128,69 123,74 119,78 116,83 113,88 111,93 109,100 107,107 106,115 105,125 104,134 103,146 103,160 103,184 105,201 110,210 115,219 122,224 131,224 137,224 149,219 167,208 185,197 208,186 237,174 265,161 298,150 336,139 374,128 417,123 463,123 508,123 548,129 582,140 616,151 645,167 668,188 691,209 709,233 721,262 732,290 738,321 738,354 738,391 731,424 716,453 701,482 679,508 651,529 622,550 587,567 545,578 504,589 456,595 403,595 L 276,595 C 271,595 265,596 260,599 255,601 251,605 247,610 243,615 240,622 238,631 235,640 234,651 234,665 234,678 235,688 237,697 239,705 242,712 246,717 249,722 253,725 258,728 263,730 268,731 274,731 L 387,731 C 431,731 471,737 506,748 541,759 570,776 595,797 619,818 638,844 651,874 664,903 670,936 670,973 670,1000 666,1025 657,1050 648,1074 635,1095 618,1113 601,1131 579,1145 552,1156 525,1166 493,1171 458,1171 419,1171 384,1165 352,1154 319,1142 290,1129 265,1116 240,1103 219,1090 202,1079 185,1067 174,1061 167,1061 162,1061 158,1062 155,1064 151,1065 148,1069 146,1074 143,1079 142,1086 141,1095 140,1104 139,1115 139,1130 139,1140 139,1149 140,1157 141,1164 142,1171 144,1177 146,1182 148,1187 151,1192 154,1197 158,1202 165,1209 171,1215 184,1224 203,1236 222,1248 246,1260 275,1272 303,1283 336,1293 373,1301 410,1309 449,1313 492,1313 552,1313 605,1305 650,1290 695,1275 733,1253 764,1225 794,1197 817,1164 832,1125 847,1086 854,1042 854,995 854,954 849,917 838,882 827,847 812,816 791,789 770,762 745,739 715,720 685,701 650,687 611,680 L 611,678 C 656,673 697,662 734,645 771,627 802,605 829,578 856,551 877,520 892,485 907,449 914,411 914,370 Z" />
      </glyph>
      <glyph
         id="glyph182"
         horiz-adv-x="928"
         unicode="4">
        <path
           id="path184"
           d="M 979,368 C 979,346 976,329 969,316 962,303 953,297 941,297 L 795,297 795,25 C 795,20 794,15 791,12 788,8 783,5 776,2 770,-1 761,-3 750,-4 739,-5 725,-6 707,-6 691,-6 677,-5 666,-4 655,-3 647,-1 640,2 633,5 629,8 627,12 624,15 623,20 623,25 L 623,297 94,297 C 86,297 79,298 74,300 68,302 64,306 59,311 55,316 52,324 50,334 49,344 48,357 48,373 48,386 48,397 49,407 50,417 51,426 53,435 55,443 58,451 61,459 64,466 68,474 73,483 L 534,1269 C 537,1274 542,1279 549,1283 555,1287 564,1290 574,1293 584,1296 597,1298 611,1299 626,1300 644,1300 665,1300 687,1300 706,1299 723,1298 740,1296 753,1294 763,1291 774,1288 781,1285 787,1281 792,1276 795,1271 795,1265 L 795,439 941,439 C 952,439 962,433 969,422 976,410 979,392 979,368 Z M 623,1149 L 621,1149 205,439 623,439 623,1149 Z" />
      </glyph>
      <glyph
         id="glyph186"
         horiz-adv-x="822"
         unicode="5">
        <path
           id="path188"
           d="M 918,416 C 918,347 906,285 883,231 860,177 827,132 784,95 741,58 691,29 632,10 573,-9 507,-19 435,-19 395,-19 357,-16 321,-10 285,-5 253,2 225,11 197,19 174,27 156,35 138,43 127,49 122,54 117,59 113,63 111,67 109,71 107,76 106,82 104,87 103,94 102,103 101,112 101,122 101,134 101,145 102,156 103,165 104,174 105,181 108,187 111,192 114,196 118,199 121,202 125,203 130,203 137,203 147,199 161,191 175,182 194,173 218,164 241,154 271,145 306,136 341,127 382,123 430,123 475,123 516,128 553,139 590,150 623,166 650,189 677,212 698,240 713,275 728,309 736,351 736,400 736,441 730,478 717,510 704,541 684,568 657,589 630,610 595,625 554,636 513,646 463,651 406,651 365,651 330,649 301,645 272,641 244,639 219,639 200,639 187,643 179,652 171,661 167,677 167,702 L 167,1229 C 167,1251 172,1267 183,1278 193,1289 208,1294 227,1294 L 800,1294 C 805,1294 811,1293 816,1290 821,1287 825,1282 828,1276 831,1270 834,1262 836,1253 837,1244 838,1233 838,1220 838,1196 835,1177 828,1164 822,1151 813,1144 802,1144 L 339,1144 339,781 C 361,784 384,786 408,787 431,788 458,788 489,788 561,788 623,779 676,762 730,744 774,719 810,687 845,654 872,615 891,569 909,523 918,472 918,416 Z" />
      </glyph>
      <glyph
         id="glyph190"
         horiz-adv-x="821"
         unicode="6">
        <path
           id="path192"
           d="M 957,419 C 957,362 948,308 931,255 914,202 887,155 851,115 815,74 769,42 714,18 659,-7 593,-19 518,-19 464,-19 416,-12 375,1 334,14 298,33 267,58 236,83 211,113 191,149 170,185 154,226 142,272 129,318 120,368 115,423 110,478 107,536 107,599 107,654 110,710 116,767 122,824 133,878 148,931 163,984 184,1033 211,1080 237,1126 270,1166 310,1201 349,1235 397,1262 452,1282 507,1302 572,1312 645,1312 670,1312 695,1311 720,1308 745,1305 769,1301 790,1296 811,1291 829,1285 844,1279 859,1273 868,1268 873,1265 878,1261 881,1257 884,1253 886,1248 888,1244 889,1239 890,1234 891,1228 892,1222 893,1215 893,1207 893,1198 893,1186 893,1176 893,1167 892,1158 891,1151 889,1146 886,1141 883,1137 880,1134 876,1131 871,1130 865,1130 858,1130 848,1132 835,1137 822,1142 807,1147 789,1153 771,1158 749,1163 724,1168 698,1173 668,1175 634,1175 572,1175 519,1162 474,1137 429,1112 393,1078 365,1035 336,992 315,943 302,887 288,830 280,771 278,710 295,720 315,730 337,740 358,750 382,759 408,767 433,775 460,782 489,787 518,792 548,794 581,794 651,794 710,785 758,766 806,747 845,720 875,687 904,653 925,613 938,568 951,522 957,472 957,419 Z M 783,403 C 783,442 779,477 772,509 764,540 751,567 733,589 715,611 691,628 661,640 631,652 594,658 550,658 525,658 501,656 476,652 451,647 428,641 405,634 382,626 360,617 339,607 318,596 298,585 281,573 281,487 287,415 298,357 309,299 325,253 346,218 367,183 393,158 424,143 455,128 492,120 534,120 577,120 614,128 645,144 676,160 702,182 723,209 744,236 759,266 769,300 778,333 783,368 783,403 Z" />
      </glyph>
      <glyph
         id="glyph194"
         horiz-adv-x="848"
         unicode="8">
        <path
           id="path196"
           d="M 954,332 C 954,276 944,226 924,183 904,139 875,102 838,72 800,42 753,19 698,4 643,-11 579,-19 508,-19 441,-19 382,-12 329,2 276,16 232,37 195,64 158,91 130,125 111,165 92,205 82,251 82,302 82,343 89,380 102,414 115,448 135,479 160,508 185,537 215,564 252,589 289,614 330,637 376,660 336,681 301,703 270,726 239,749 213,774 192,801 171,828 155,856 144,887 133,918 127,951 127,987 127,1032 135,1075 152,1115 168,1154 193,1189 226,1218 259,1247 301,1271 352,1288 403,1305 462,1313 530,1313 595,1313 652,1305 700,1290 747,1274 787,1253 818,1226 849,1199 871,1167 886,1130 901,1093 908,1054 908,1012 908,978 903,945 892,914 881,883 864,853 843,825 822,797 796,771 765,747 734,722 698,699 658,678 705,655 748,631 785,606 822,581 853,555 878,527 903,498 922,468 935,437 948,405 954,370 954,332 Z M 738,996 C 738,1024 733,1049 724,1072 714,1095 700,1114 681,1130 662,1146 639,1158 612,1167 584,1175 552,1179 517,1179 445,1179 391,1163 354,1130 317,1097 298,1053 298,996 298,970 303,946 312,924 321,901 335,880 354,860 373,840 397,821 426,802 455,783 489,763 529,742 596,777 648,815 684,857 720,899 738,945 738,996 Z M 780,314 C 780,345 774,373 763,398 752,423 735,446 712,468 689,489 660,510 626,531 591,551 551,572 506,594 464,573 427,553 396,532 364,511 338,490 318,468 297,446 282,423 272,399 261,374 256,347 256,318 256,253 278,203 323,168 367,133 433,115 521,115 606,115 671,133 715,169 758,204 780,253 780,314 Z" />
      </glyph>
    </font>
</defs>
</svg>
