<svg xmlns="http://www.w3.org/2000/svg">
<defs>
<font
       id="EmbeddedFont_1"
       horiz-adv-x="2048"
       horiz-origin-x="0"
       horiz-origin-y="0"
       vert-origin-x="45"
       vert-origin-y="90"
       vert-adv-y="90"><font-face
         font-family="Latin Modern Roman embedded"
         units-per-em="2048"
         font-weight="normal"
         font-style="normal"
         ascent="2302"
         descent="609"
         id="font-face12" /><missing-glyph
         horiz-adv-x="2048"
         d="M 0,0 L 2047,0 2047,2047 0,2047 0,0 Z"
         id="missing-glyph14" /><glyph
         unicode="é"
         horiz-adv-x="769"
         d="M 788,514 C 788,723 678,905 444,905 227,905 55,698 55,447 55,180 250,-16 467,-16 696,-16 786,201 786,244 786,258 770,258 770,258 756,258 754,254 745,230 700,90 588,21 481,21 393,21 305,70 250,160 186,264 186,385 186,481 L 780,481 C 788,489 788,494 788,514 Z M 678,512 L 188,512 C 203,807 360,872 442,872 582,872 676,741 678,512 Z M 653,1370 C 653,1401 627,1426 598,1426 573,1426 565,1415 545,1391 L 313,1096 C 299,1077 299,1073 299,1073 L 322,1048 623,1321 C 647,1344 653,1348 653,1370 Z"
         id="glyph16" /><glyph
         unicode="è"
         horiz-adv-x="769"
         d="M 788,514 C 788,723 678,905 444,905 227,905 55,698 55,447 55,180 250,-16 467,-16 696,-16 786,201 786,244 786,258 770,258 770,258 756,258 754,254 745,230 700,90 588,21 481,21 393,21 305,70 250,160 186,264 186,385 186,481 L 780,481 C 788,489 788,494 788,514 Z M 678,512 L 188,512 C 203,807 360,872 442,872 582,872 676,741 678,512 Z M 535,1073 C 535,1073 535,1077 520,1096 L 289,1391 C 268,1415 260,1426 236,1426 207,1426 180,1401 180,1370 180,1348 186,1344 211,1321 L 512,1048 535,1073 Z"
         id="glyph18" /><glyph
         unicode="z"
         horiz-adv-x="742"
         d="M 762,369 L 725,369 C 709,141 682,37 432,37 L 170,37 739,834 C 756,854 756,862 756,862 756,881 748,881 711,881 L 88,881 68,563 104,563 C 119,762 141,848 377,848 L 627,848 41,31 C 41,2 43,0 86,0 L 733,0 762,369 Z"
         id="glyph20" /><glyph
         unicode="x"
         horiz-adv-x="1032"
         d="M 989,0 L 989,53 C 887,53 856,57 807,121 L 532,477 721,714 C 788,792 866,825 956,825 L 956,878 813,878 C 758,878 694,878 647,880 L 647,827 C 676,823 692,802 692,774 692,737 672,714 662,700 L 510,508 330,743 C 311,766 311,770 311,780 311,805 332,825 367,825 L 367,880 C 317,876 229,876 178,876 123,876 57,876 12,880 L 12,827 C 123,827 147,819 197,757 L 432,451 C 436,447 446,435 446,429 446,421 268,201 246,172 154,61 57,53 2,53 L 2,2 145,2 C 186,2 276,2 313,0 L 313,53 C 301,55 268,59 268,106 268,143 285,166 303,190 L 473,399 651,166 C 668,144 692,113 692,99 692,70 668,53 635,53 L 635,0 C 684,4 772,4 823,4 879,4 944,4 989,0 Z"
         id="glyph22" /><glyph
         unicode="v"
         horiz-adv-x="980"
         d="M 971,825 L 971,878 842,878 C 799,878 731,878 690,880 L 690,827 C 741,823 770,799 770,745 770,727 770,723 758,694 L 532,125 289,739 C 276,766 276,770 276,778 276,827 344,827 375,827 L 375,880 C 326,876 236,876 184,876 129,876 66,876 20,880 L 20,827 C 98,827 141,827 166,764 L 463,18 C 475,-12 477,-17 496,-17 514,-17 516,-12 528,18 L 801,698 C 819,743 852,825 971,825 Z"
         id="glyph24" /><glyph
         unicode="u"
         horiz-adv-x="953"
         d="M 989,-8 L 989,53 C 868,53 850,66 850,164 L 850,897 602,875 602,822 C 723,822 741,809 741,711 L 741,338 C 741,166 649,17 498,17 330,17 315,117 315,224 L 315,897 68,875 68,822 C 150,822 205,822 207,740 L 207,346 C 207,209 207,121 260,64 287,37 338,-16 485,-16 659,-16 727,132 743,175 L 745,175 745,-8 989,-8 Z"
         id="glyph26" /><glyph
         unicode="t"
         horiz-adv-x="636"
         d="M 629,254 L 629,371 592,371 592,256 C 592,115 537,21 451,21 391,21 309,62 309,248 L 309,828 596,828 596,881 309,881 309,1260 272,1260 C 268,1047 197,862 23,862 L 23,828 201,828 201,252 C 201,213 201,-16 438,-16 559,-16 629,103 629,254 Z"
         id="glyph28" /><glyph
         unicode="s"
         horiz-adv-x="663"
         d="M 682,254 C 682,359 627,414 600,439 539,502 467,517 381,533 268,557 125,586 125,711 125,764 154,877 360,877 580,877 592,672 596,606 598,596 608,594 614,594 633,594 633,600 633,635 L 633,864 C 633,901 631,903 619,903 610,903 608,901 584,871 578,862 559,842 553,834 487,904 395,904 360,904 133,904 51,785 51,667 51,483 260,440 319,427 449,401 494,393 537,356 563,331 608,287 608,213 608,127 559,17 371,17 193,17 129,152 92,332 86,361 86,363 70,363 53,363 51,361 51,320 L 51,25 C 51,-12 53,-14 66,-14 76,-14 78,-12 88,4 L 143,93 C 184,37 256,-16 371,-16 573,-16 682,95 682,254 Z"
         id="glyph30" /><glyph
         unicode="r"
         horiz-adv-x="636"
         d="M 682,790 C 682,856 616,897 547,897 391,897 324,745 303,674 L 301,674 301,897 63,874 63,821 C 184,821 203,809 203,710 L 203,141 C 203,63 195,53 63,53 L 63,0 C 113,4 207,4 260,4 319,4 424,4 479,0 L 479,53 C 332,53 307,53 307,145 L 307,483 C 307,680 391,864 545,864 559,864 573,862 588,856 588,856 543,841 543,788 543,739 582,719 612,719 637,719 682,733 682,790 Z"
         id="glyph32" /><glyph
         unicode="q"
         horiz-adv-x="953"
         d="M 981,-399 L 981,-346 C 850,-346 842,-338 842,-258 L 842,897 809,897 748,694 C 700,803 614,897 477,897 268,897 68,711 68,441 68,172 256,-16 461,-16 619,-16 707,105 733,150 L 733,-258 C 733,-336 725,-346 594,-346 L 594,-399 C 643,-395 733,-395 786,-395 840,-395 932,-395 981,-399 Z M 737,281 C 737,193 664,111 657,105 594,33 520,17 471,17 317,17 199,211 199,438 199,678 334,860 492,860 655,860 737,674 737,567 L 737,281 Z"
         id="glyph34" /><glyph
         unicode="p"
         horiz-adv-x="927"
         d="M 977,443 C 977,700 799,897 588,897 465,897 365,829 307,748 L 307,897 63,874 63,821 C 184,821 203,809 203,711 L 203,-258 C 203,-336 195,-346 63,-346 L 63,-399 C 113,-395 203,-395 256,-395 309,-395 401,-395 451,-399 L 451,-346 C 319,-346 311,-338 311,-258 L 311,125 C 371,39 457,-16 565,-16 770,-16 977,164 977,443 Z M 846,441 C 846,207 715,17 553,17 479,17 399,52 338,148 311,193 311,205 311,238 L 311,643 C 311,672 311,715 391,791 401,799 471,860 573,860 723,860 846,674 846,441 Z"
         id="glyph36" /><glyph
         unicode="o"
         horiz-adv-x="875"
         d="M 883,438 C 883,700 692,905 469,905 246,905 55,700 55,438 55,180 246,-16 469,-16 692,-16 883,180 883,438 Z M 752,455 C 752,375 748,252 692,154 635,60 547,21 469,21 373,21 291,78 244,158 193,250 186,365 186,455 186,541 190,647 244,739 285,807 365,872 469,872 561,872 639,821 688,749 752,653 752,518 752,455 Z"
         id="glyph38" /><glyph
         unicode="n"
         horiz-adv-x="953"
         d="M 989,0 L 989,53 C 858,53 850,61 850,141 L 850,622 C 850,727 829,897 588,897 426,897 342,772 311,690 L 309,690 309,897 68,874 68,821 C 188,821 207,809 207,710 L 207,141 C 207,63 199,53 68,53 L 68,0 C 117,4 207,4 260,4 313,4 406,4 455,0 L 455,53 C 324,53 315,61 315,141 L 315,534 C 315,723 430,864 573,864 725,864 741,729 741,631 L 741,141 C 741,63 733,53 602,53 L 602,0 C 651,4 741,4 795,4 848,4 940,4 989,0 Z"
         id="glyph40" /><glyph
         unicode="m"
         horiz-adv-x="1483"
         d="M 1524,0 L 1524,53 C 1393,53 1384,61 1384,141 L 1384,622 C 1384,725 1366,897 1122,897 983,897 887,803 850,692 L 848,692 C 823,860 702,897 588,897 426,897 342,772 311,690 L 309,690 309,897 68,874 68,821 C 188,821 207,809 207,710 L 207,141 C 207,63 199,53 68,53 L 68,0 C 117,4 207,4 260,4 313,4 406,4 455,0 L 455,53 C 324,53 315,61 315,141 L 315,534 C 315,723 430,864 573,864 725,864 741,729 741,631 L 741,141 C 741,63 733,53 602,53 L 602,0 C 651,4 741,4 795,4 848,4 940,4 989,0 L 989,53 C 858,53 850,61 850,141 L 850,534 C 850,723 965,864 1108,864 1260,864 1276,729 1276,631 L 1276,141 C 1276,63 1268,53 1137,53 L 1137,0 C 1186,4 1276,4 1329,4 1382,4 1475,4 1524,0 Z"
         id="glyph42" /><glyph
         unicode="l"
         horiz-adv-x="424"
         d="M 453,0 L 453,53 C 322,53 313,61 313,141 L 313,1421 70,1398 70,1345 C 190,1345 209,1333 209,1234 L 209,141 C 209,63 201,53 70,53 L 70,0 C 119,4 209,4 260,4 313,4 403,4 453,0 Z"
         id="glyph44" /><glyph
         unicode="i"
         horiz-adv-x="398"
         d="M 438,0 L 438,53 C 317,53 313,65 313,139 L 313,897 78,874 78,821 C 193,821 209,809 209,711 L 209,141 C 209,63 201,53 70,53 L 70,0 C 119,4 207,4 258,4 307,4 391,4 438,0 Z M 338,1237 C 338,1286 299,1321 256,1321 207,1321 172,1282 172,1237 172,1188 211,1153 254,1153 303,1153 338,1192 338,1237 Z"
         id="glyph46" /><glyph
         unicode="f"
         horiz-adv-x="636"
         d="M 641,1312 C 641,1390 567,1437 485,1437 369,1437 209,1341 209,1124 L 209,880 45,880 45,827 209,827 209,141 C 209,63 201,53 70,53 L 70,0 C 119,4 213,4 266,4 326,4 430,4 485,0 L 485,53 C 338,53 313,53 313,145 L 313,827 547,827 547,880 309,880 309,1128 C 309,1298 395,1404 483,1404 510,1404 541,1396 561,1382 545,1378 502,1363 502,1312 502,1259 543,1243 571,1243 600,1243 641,1259 641,1312 Z"
         id="glyph48" /><glyph
         unicode="e"
         horiz-adv-x="769"
         d="M 788,514 C 788,723 678,905 444,905 227,905 55,698 55,447 55,180 250,-16 467,-16 696,-16 786,201 786,244 786,258 770,258 770,258 756,258 754,254 745,230 700,90 588,21 481,21 393,21 305,70 250,160 186,264 186,385 186,481 L 780,481 C 788,489 788,494 788,514 Z M 678,512 L 188,512 C 203,807 360,872 442,872 582,872 676,741 678,512 Z"
         id="glyph50" /><glyph
         unicode="d"
         horiz-adv-x="953"
         d="M 981,-8 L 981,53 C 860,53 842,66 842,164 L 842,1421 598,1399 598,1346 C 719,1346 737,1333 737,1235 L 737,756 C 729,766 645,897 479,897 270,897 68,711 68,441 68,172 258,-16 459,-16 633,-16 723,119 733,133 L 733,-8 981,-8 Z M 733,246 C 733,185 696,129 649,88 580,27 510,17 471,17 412,17 199,47 199,438 199,840 436,864 489,864 584,864 659,811 707,737 733,694 733,688 733,651 L 733,246 Z"
         id="glyph52" /><glyph
         unicode="c"
         horiz-adv-x="742"
         d="M 786,242 C 786,250 784,256 770,256 756,256 754,254 745,228 692,62 575,21 487,21 356,21 199,142 199,445 199,756 350,868 471,868 551,868 670,829 715,717 676,717 619,717 619,645 619,588 666,572 692,572 707,572 766,578 766,649 766,795 627,905 469,905 252,905 68,704 68,442 68,170 260,-16 469,-16 723,-16 786,219 786,242 Z"
         id="glyph54" /><glyph
         unicode="a"
         horiz-adv-x="874"
         d="M 920,183 L 920,297 883,297 883,181 C 883,55 827,39 801,39 717,39 717,146 717,236 L 717,530 C 717,665 717,737 631,817 555,885 467,905 397,905 236,905 119,777 119,642 119,566 180,566 193,566 219,566 266,582 266,638 266,689 227,711 193,711 184,711 174,709 168,707 211,835 322,872 393,872 496,872 608,782 608,609 L 608,519 C 487,519 342,502 227,441 98,369 61,266 61,188 61,29 246,-16 354,-16 467,-16 571,47 616,164 621,74 678,-8 768,-8 811,-8 920,21 920,183 Z M 608,284 C 608,107 481,17 369,17 266,17 186,93 186,188 186,249 213,358 332,424 430,480 543,488 608,488 L 608,284 Z"
         id="glyph56" /><glyph
         unicode="T"
         horiz-adv-x="1271"
         d="M 1309,940 L 1274,1392 92,1392 57,940 94,940 C 121,1280 150,1339 465,1339 502,1339 561,1339 578,1337 616,1331 616,1306 616,1259 L 616,149 C 616,76 610,53 440,53 L 383,53 383,2 684,2 985,2 985,53 928,53 C 758,53 752,76 752,149 L 752,1259 C 752,1304 752,1329 788,1337 805,1339 864,1339 901,1339 1214,1339 1245,1280 1272,940 L 1309,940 Z"
         id="glyph58" /><glyph
         unicode="S"
         horiz-adv-x="875"
         d="M 950,370 C 950,477 911,559 889,596 803,727 711,751 612,776 598,782 594,782 479,811 369,839 322,854 270,909 213,972 193,1038 193,1103 193,1236 299,1382 473,1382 690,1382 825,1228 856,972 862,936 864,934 879,934 897,934 897,940 897,974 L 897,1390 C 897,1427 895,1429 883,1429 870,1429 866,1421 858,1402 L 797,1267 C 719,1380 600,1431 471,1431 262,1431 94,1265 94,1056 94,993 109,903 178,817 254,723 326,706 489,663 551,647 653,620 674,612 791,563 852,440 852,325 852,178 748,20 569,20 350,20 145,143 131,430 129,462 127,465 113,465 96,465 94,462 94,422 L 94,8 C 94,-29 96,-31 109,-31 123,-31 127,-21 156,43 158,49 158,53 197,131 299,-4 471,-33 569,-33 793,-33 950,153 950,370 Z"
         id="glyph60" /><glyph
         unicode="Q"
         horiz-adv-x="1324"
         d="M 1389,-23 C 1389,-2 1389,12 1374,12 1364,12 1362,-6 1362,-6 1348,-203 1237,-243 1171,-243 1051,-243 1008,-135 969,18 1212,123 1378,389 1378,696 1378,1116 1077,1432 737,1432 389,1432 94,1112 94,696 94,287 389,-33 737,-33 784,-33 850,-27 928,0 963,-250 985,-399 1161,-399 1378,-399 1389,-80 1389,-23 Z M 1227,696 C 1227,350 1090,158 952,70 922,174 872,297 739,297 641,297 586,211 586,133 586,86 604,47 627,20 414,88 246,315 246,696 246,1184 514,1395 735,1395 965,1395 1227,1176 1227,696 Z M 920,51 C 838,6 772,6 737,6 645,6 619,89 619,134 619,197 662,264 739,264 870,264 903,147 920,51 Z"
         id="glyph62" /><glyph
         unicode="C"
         horiz-adv-x="1192"
         d="M 1272,479 C 1272,499 1272,508 1253,508 1237,508 1237,501 1235,483 1219,196 1014,20 793,20 584,20 250,168 250,700 250,1234 590,1378 788,1378 1020,1378 1188,1177 1227,893 1231,868 1231,864 1249,864 1272,864 1272,868 1272,905 L 1272,1390 C 1272,1427 1270,1429 1257,1429 1249,1429 1247,1427 1233,1402 L 1143,1230 C 1042,1357 920,1431 762,1431 412,1431 94,1122 94,700 94,274 412,-33 764,-33 1077,-33 1272,243 1272,479 Z"
         id="glyph64" /><glyph
         unicode="-"
         horiz-adv-x="530"
         d="M 522,395 L 522,485 8,485 8,395 522,395 Z"
         id="glyph66" /><glyph
         unicode=" "
         horiz-adv-x="609"
         id="glyph68" /></font></defs><defs
     id="defs70"><font
       id="EmbeddedFont_2"
       horiz-adv-x="2048"
       horiz-origin-x="0"
       horiz-origin-y="0"
       vert-origin-x="45"
       vert-origin-y="90"
       vert-adv-y="90"><font-face
         font-family="Liberation Serif embedded"
         units-per-em="2048"
         font-weight="normal"
         font-style="normal"
         ascent="1826"
         descent="450"
         id="font-face73" /><missing-glyph
         horiz-adv-x="2048"
         d="M 0,0 L 2047,0 2047,2047 0,2047 0,0 Z"
         id="missing-glyph75" /><glyph
         unicode="é"
         horiz-adv-x="742"
         d="M 260,473 L 260,455 C 260,406 264,360 271,315 278,270 292,231 313,197 334,162 363,135 401,115 439,94 489,84 551,84 571,84 592,85 614,87 636,88 658,90 680,93 702,96 723,99 744,102 765,105 784,109 801,113 L 801,57 C 786,47 767,38 746,29 724,20 700,11 674,4 648,-3 620,-9 591,-14 562,-18 532,-20 502,-20 424,-20 358,-9 305,12 251,33 207,65 174,107 141,149 117,201 102,263 87,325 80,396 80,477 80,641 114,763 183,844 252,925 350,965 477,965 527,965 574,958 618,945 661,932 699,909 732,878 765,847 791,805 810,752 829,699 838,634 838,555 L 838,473 260,473 Z M 477,885 C 440,885 408,877 381,862 354,846 331,824 314,795 296,766 283,732 275,691 266,650 262,604 262,553 L 664,553 C 664,604 661,650 656,691 650,732 640,766 626,795 611,824 592,846 568,862 544,877 514,885 477,885 Z M 382,1119 L 382,1152 578,1424 791,1424 791,1387 437,1119 382,1119 Z"
         id="glyph77" /><glyph
         unicode="u"
         horiz-adv-x="980"
         d="M 313,268 C 313,213 326,170 351,141 376,111 416,96 473,96 510,96 549,99 589,104 629,109 668,116 705,127 L 705,870 563,895 563,940 870,940 870,70 989,45 989,0 715,0 707,76 C 688,65 665,54 638,43 611,32 584,21 555,12 526,3 496,-5 467,-11 438,-17 411,-20 387,-20 351,-20 318,-15 289,-5 260,5 235,21 214,43 193,65 176,94 165,129 153,164 147,206 147,256 L 147,870 27,895 27,940 313,940 313,268 Z"
         id="glyph79" /><glyph
         unicode="r"
         horiz-adv-x="636"
         d="M 664,965 L 664,711 621,711 563,821 C 544,821 524,820 503,817 482,814 460,811 439,807 418,802 397,797 378,791 358,785 341,779 326,772 L 326,70 487,45 487,0 41,0 41,45 160,70 160,870 41,895 41,940 315,940 324,823 C 339,836 360,850 387,867 414,883 443,898 474,913 505,928 536,940 567,950 598,960 625,965 649,965 L 664,965 Z"
         id="glyph81" /><glyph
         unicode="o"
         horiz-adv-x="875"
         d="M 946,475 C 946,316 910,193 839,108 768,23 657,-20 506,-20 365,-20 258,22 186,107 114,192 78,314 78,475 78,634 114,755 186,839 258,923 367,965 514,965 657,965 764,924 837,842 910,759 946,637 946,475 Z M 766,475 C 766,540 762,598 753,649 744,700 730,743 710,778 689,813 662,839 629,858 596,876 555,885 506,885 457,885 416,876 384,858 352,839 327,813 308,778 289,743 276,700 269,649 262,598 258,540 258,475 258,410 262,351 269,300 276,249 289,205 308,170 327,134 352,107 384,88 416,69 457,59 506,59 555,59 596,69 629,88 662,107 689,134 710,170 730,205 744,249 753,300 762,351 766,410 766,475 Z"
         id="glyph83" /><glyph
         unicode="n"
         horiz-adv-x="1007"
         d="M 324,864 C 343,875 365,886 391,898 416,910 443,921 471,931 499,941 527,949 555,956 583,962 609,965 633,965 669,965 702,960 732,950 762,940 788,924 810,902 831,880 848,851 861,816 873,781 879,738 879,688 L 879,70 993,45 993,0 588,0 588,45 713,70 713,670 C 713,725 700,769 673,801 646,832 604,848 547,848 528,848 509,847 488,845 467,843 447,841 427,838 407,835 388,832 371,829 353,825 338,822 326,819 L 326,70 453,45 453,0 47,0 47,45 160,70 160,870 47,895 47,940 315,940 324,864 Z"
         id="glyph85" /><glyph
         unicode="m"
         horiz-adv-x="1483"
         d="M 326,864 C 345,875 367,886 393,898 418,910 445,921 472,931 499,941 527,949 555,956 583,962 609,965 633,965 679,965 722,956 761,939 800,922 829,894 848,856 869,868 895,881 925,894 955,907 986,918 1019,929 1051,940 1083,948 1115,955 1146,962 1175,965 1200,965 1236,965 1269,960 1298,950 1327,940 1353,924 1374,902 1395,880 1411,851 1423,816 1434,781 1440,738 1440,688 L 1440,70 1561,45 1561,0 1134,0 1134,45 1274,70 1274,670 C 1274,725 1262,768 1237,798 1212,827 1171,842 1114,842 1097,842 1077,841 1054,838 1031,835 1008,832 985,829 962,826 940,822 919,818 898,813 880,810 866,807 877,771 883,731 883,688 L 883,70 1024,45 1024,0 578,0 578,45 717,70 717,670 C 717,725 703,768 675,798 646,827 604,842 547,842 528,842 509,841 489,839 468,837 448,835 429,832 409,829 390,826 373,823 355,819 340,816 328,813 L 328,70 469,45 469,0 43,0 43,45 162,70 162,870 43,895 43,940 318,940 326,864 Z"
         id="glyph87" /><glyph
         unicode="&gt;"
         horiz-adv-x="927"
         d="M 104,186 L 104,289 913,680 104,1071 104,1174 1057,705 1057,655 104,186 Z"
         id="glyph89" /><glyph
         unicode="&lt;"
         horiz-adv-x="927"
         d="M 102,655 L 102,705 1055,1174 1055,1071 246,680 1055,289 1055,186 102,655 Z"
         id="glyph91" /></font></defs><defs
     id="defs93"><font
       id="EmbeddedFont_3"
       horiz-adv-x="2048"
       horiz-origin-x="0"
       horiz-origin-y="0"
       vert-origin-x="45"
       vert-origin-y="90"
       vert-adv-y="90"><font-face
         font-family="StarSymbol embedded"
         units-per-em="2048"
         font-weight="normal"
         font-style="normal"
         ascent="1879"
         descent="635"
         id="font-face96" /><missing-glyph
         horiz-adv-x="2048"
         d="M 0,0 L 2047,0 2047,2047 0,2047 0,0 Z"
         id="missing-glyph98" /><glyph
         unicode="●"
         horiz-adv-x="1191"
         d="M 813,0 C 632,0 489,54 383,161 276,268 223,411 223,592 223,773 276,916 383,1023 489,1130 632,1184 813,1184 992,1184 1136,1130 1245,1023 1353,916 1407,772 1407,592 1407,412 1353,268 1245,161 1136,54 992,0 813,0 Z"
         id="glyph100" /><glyph
         unicode="–"
         horiz-adv-x="1139"
         d="M -4,459 L 1135,459 1135,606 -4,606 -4,459 Z"
         id="glyph102" /></font>
</defs>
</svg>
