<svg xmlns="http://www.w3.org/2000/svg">
<defs>
<font
       horiz-adv-x="2048"
       id="EmbeddedFont_1"
       horiz-origin-x="0"
       horiz-origin-y="0"
       vert-origin-x="45"
       vert-origin-y="90"
       vert-adv-y="90"><font-face
         id="font-face12"
         descent="635"
         ascent="2381"
         font-style="normal"
         font-weight="normal"
         units-per-em="2048"
         font-family="Latin Modern Sans embedded" /><missing-glyph
         id="missing-glyph14"
         d="M 0,0 L 2047,0 2047,2047 0,2047 0,0 Z"
         horiz-adv-x="2048" /><glyph
         id="glyph16"
         horiz-adv-x="1"
         unicode=" " /><glyph
         id="glyph18"
         d="M 881,686 C 881,1280 625,1376 487,1376 350,1376 262,1314 186,1216 96,1103 80,1003 80,886 80,747 104,661 162,563 240,436 311,409 391,409 512,409 633,468 715,571 700,295 575,94 395,94 322,94 262,116 203,172 L 139,63 C 197,14 270,-33 395,-33 643,-33 881,241 881,686 Z M 711,841 C 711,669 612,534 469,534 375,534 326,583 289,647 244,727 242,804 242,886 242,966 242,1054 299,1142 342,1206 395,1251 487,1251 676,1251 707,974 709,890 711,876 711,849 711,841 Z"
         horiz-adv-x="822"
         unicode="9" /><glyph
         id="glyph20"
         d="M 881,376 C 881,512 801,655 619,727 774,778 854,901 854,1022 854,1212 690,1376 481,1376 264,1376 107,1206 107,1022 107,903 184,780 342,727 141,649 80,493 80,376 80,151 262,-33 479,-33 705,-33 881,155 881,376 Z M 709,1019 C 709,872 610,788 481,788 344,788 252,880 252,1019 252,1161 344,1251 481,1251 608,1251 709,1169 709,1019 Z M 721,379 C 721,166 586,94 481,94 365,94 240,174 240,379 240,589 379,663 479,663 590,663 721,585 721,379 Z"
         horiz-adv-x="822"
         unicode="8" /><glyph
         id="glyph22"
         d="M 881,1210 L 881,1343 80,1343 80,1204 444,1204 C 469,1204 494,1206 518,1206 L 754,1206 C 461,864 293,432 293,-17 L 457,-17 C 457,418 600,858 881,1210 Z"
         horiz-adv-x="822"
         unicode="7" /><glyph
         id="glyph24"
         d="M 881,454 C 881,708 756,933 569,933 434,933 317,861 246,771 266,1060 401,1251 596,1251 649,1251 719,1243 799,1208 L 799,1335 C 713,1370 651,1376 594,1376 328,1376 80,1097 80,657 80,94 315,-33 483,-33 575,-33 668,-4 756,98 846,206 881,297 881,454 Z M 719,454 C 719,374 719,294 672,213 633,149 582,94 483,94 289,94 256,366 248,448 248,464 248,475 250,505 250,665 342,808 492,808 588,808 637,757 674,694 717,614 719,538 719,454 Z"
         horiz-adv-x="822"
         unicode="6" /><glyph
         id="glyph26"
         d="M 864,415 C 864,667 698,862 500,862 428,862 358,837 299,788 L 299,1212 801,1212 801,1343 150,1343 150,588 287,588 C 324,674 399,737 498,737 590,737 692,655 692,420 692,168 547,94 440,94 309,94 188,174 135,284 L 70,170 C 164,24 317,-33 440,-33 678,-33 864,170 864,415 Z"
         horiz-adv-x="821"
         unicode="5" /><glyph
         id="glyph28"
         d="M 907,350 L 907,475 721,475 721,1343 541,1343 53,475 53,350 559,350 559,0 721,0 721,350 907,350 Z M 565,475 L 211,475 C 330,684 563,1106 565,1249 L 565,475 Z"
         horiz-adv-x="874"
         unicode="4" /><glyph
         id="glyph30"
         d="M 881,377 C 881,538 768,674 614,725 737,792 827,919 827,1067 827,1239 670,1376 477,1376 301,1376 164,1267 107,1151 121,1130 158,1071 176,1040 221,1161 338,1251 475,1251 590,1251 666,1175 666,1067 666,954 594,831 473,803 465,803 338,790 322,788 L 322,663 461,663 C 653,663 709,495 709,379 709,219 619,94 471,94 356,94 195,151 102,303 88,231 88,227 80,178 176,37 332,-33 475,-33 709,-33 881,162 881,377 Z"
         horiz-adv-x="822"
         unicode="3" /><glyph
         id="glyph32"
         d="M 864,0 L 864,139 516,139 C 492,139 467,137 442,137 L 238,137 238,139 528,434 C 586,493 672,565 731,637 788,706 864,805 864,948 864,1173 713,1376 455,1376 252,1376 135,1249 80,1050 L 160,940 C 205,1126 268,1245 428,1245 604,1245 702,1102 702,944 702,756 559,610 451,502 L 96,131 96,0 864,0 Z"
         horiz-adv-x="795"
         unicode="2" /><glyph
         id="glyph34"
         d="M 823,0 L 823,119 582,119 582,1376 543,1376 C 432,1259 303,1243 172,1243 L 172,1124 C 231,1124 328,1124 424,1171 L 424,119 182,119 182,0 823,0 Z"
         horiz-adv-x="662"
         unicode="1" /><glyph
         id="glyph36"
         d="M 883,669 C 883,786 881,1003 797,1171 713,1333 578,1376 481,1376 342,1376 223,1294 162,1163 96,1026 78,884 78,669 78,522 84,342 158,184 242,10 383,-33 479,-33 606,-33 729,35 799,176 870,323 883,485 883,669 Z M 727,692 C 727,501 727,92 479,92 324,92 276,270 262,329 238,432 233,530 233,692 233,819 233,962 272,1075 319,1206 401,1251 479,1251 631,1251 680,1099 696,1046 727,938 727,811 727,692 Z"
         horiz-adv-x="848"
         unicode="0" /><glyph
         id="glyph38"
         d="M 532,381 L 532,500 20,500 20,381 532,381 Z"
         horiz-adv-x="557"
         unicode="-" /><glyph
         id="glyph40"
         d="M 641,1122 C 641,1359 514,1533 375,1533 238,1533 107,1363 107,1122 107,880 238,710 375,710 516,710 641,884 641,1122 Z M 1268,1496 C 1268,1519 1249,1533 1233,1533 1210,1533 1200,1517 1190,1496 L 352,-43 C 348,-52 340,-64 340,-76 340,-99 358,-113 377,-113 395,-113 399,-105 416,-76 L 1255,1463 C 1268,1484 1268,1496 1268,1496 Z M 1497,299 C 1497,536 1370,710 1231,710 1094,710 963,540 963,299 963,57 1094,-113 1231,-113 1372,-113 1497,61 1497,299 Z M 492,1122 C 492,984 451,835 375,835 332,835 262,874 262,1122 262,1367 332,1408 375,1408 451,1408 492,1259 492,1122 Z M 1348,299 C 1348,161 1307,12 1231,12 1188,12 1118,51 1118,299 1118,544 1188,585 1231,585 1307,585 1348,436 1348,299 Z"
         horiz-adv-x="1403"
         unicode="%" /></font></defs><defs
     id="defs42"><font
       horiz-adv-x="2048"
       id="EmbeddedFont_2"
       horiz-origin-x="0"
       horiz-origin-y="0"
       vert-origin-x="45"
       vert-origin-y="90"
       vert-adv-y="90"><font-face
         id="font-face45"
         descent="423"
         ascent="1852"
         font-style="normal"
         font-weight="normal"
         units-per-em="2048"
         font-family="Liberation Sans embedded" /><missing-glyph
         id="missing-glyph47"
         d="M 0,0 L 2047,0 2047,2047 0,2047 0,0 Z"
         horiz-adv-x="2048" /><glyph
         id="glyph49"
         d="M 276,503 C 276,446 282,394 294,347 305,299 323,258 348,224 372,189 403,163 441,144 479,125 525,115 578,115 656,115 719,131 766,162 813,193 844,233 861,281 L 1019,236 C 1008,206 992,176 972,146 951,115 924,88 890,64 856,39 814,19 763,4 712,-12 650,-20 578,-20 418,-20 296,28 213,123 129,218 87,360 87,548 87,649 100,735 125,806 150,876 185,933 229,977 273,1021 324,1053 383,1073 442,1092 504,1102 571,1102 662,1102 738,1087 799,1058 860,1029 909,988 946,937 983,885 1009,824 1025,754 1040,684 1048,608 1048,527 L 1048,503 276,503 Z M 862,641 C 852,755 823,838 775,891 727,943 658,969 568,969 538,969 507,964 474,955 441,945 410,928 382,903 354,878 330,845 311,803 292,760 281,706 278,641 L 862,641 Z M 440,1201 L 440,1221 657,1508 864,1508 864,1479 534,1201 440,1201 Z"
         horiz-adv-x="980"
         unicode="é" /><glyph
         id="glyph51"
         d="M 276,503 C 276,446 282,394 294,347 305,299 323,258 348,224 372,189 403,163 441,144 479,125 525,115 578,115 656,115 719,131 766,162 813,193 844,233 861,281 L 1019,236 C 1008,206 992,176 972,146 951,115 924,88 890,64 856,39 814,19 763,4 712,-12 650,-20 578,-20 418,-20 296,28 213,123 129,218 87,360 87,548 87,649 100,735 125,806 150,876 185,933 229,977 273,1021 324,1053 383,1073 442,1092 504,1102 571,1102 662,1102 738,1087 799,1058 860,1029 909,988 946,937 983,885 1009,824 1025,754 1040,684 1048,608 1048,527 L 1048,503 276,503 Z M 862,641 C 852,755 823,838 775,891 727,943 658,969 568,969 538,969 507,964 474,955 441,945 410,928 382,903 354,878 330,845 311,803 292,760 281,706 278,641 L 862,641 Z M 657,1201 L 327,1479 327,1508 534,1508 751,1221 751,1201 657,1201 Z"
         horiz-adv-x="980"
         unicode="è" /><glyph
         id="glyph53"
         d="M 49,0 L 49,137 710,943 89,943 89,1082 913,1082 913,945 251,139 950,139 950,0 49,0 Z"
         horiz-adv-x="901"
         unicode="z" /><glyph
         id="glyph55"
         d="M 801,0 L 510,444 217,0 23,0 408,556 41,1082 240,1082 510,661 778,1082 979,1082 612,558 1002,0 801,0 Z"
         horiz-adv-x="1033"
         unicode="x" /><glyph
         id="glyph57"
         d="M 613,0 L 400,0 7,1082 199,1082 437,378 C 442,363 447,346 454,325 460,304 466,282 473,259 480,236 486,215 492,194 497,173 502,155 506,141 510,155 515,173 522,194 528,215 534,236 541,258 548,280 555,302 562,323 569,344 575,361 580,376 L 826,1082 1017,1082 613,0 Z"
         horiz-adv-x="1059"
         unicode="v" /><glyph
         id="glyph59"
         d="M 314,1082 L 314,396 C 314,343 318,299 326,264 333,229 346,200 363,179 380,157 403,142 432,133 460,124 495,119 537,119 580,119 618,127 653,142 687,157 716,178 741,207 765,235 784,270 797,312 810,353 817,401 817,455 L 817,1082 997,1082 997,231 C 997,208 997,185 998,160 998,135 998,111 999,89 1000,66 1000,47 1001,31 1002,15 1002,5 1003,0 L 833,0 C 832,3 832,12 831,27 830,42 830,59 829,78 828,97 827,116 826,136 825,155 825,172 825,185 L 822,185 C 805,154 786,125 765,100 744,75 720,53 693,36 666,18 634,4 599,-6 564,-15 523,-20 476,-20 416,-20 364,-13 321,2 278,17 242,39 214,70 186,101 166,140 153,188 140,236 133,294 133,361 L 133,1082 314,1082 Z"
         horiz-adv-x="901"
         unicode="u" /><glyph
         id="glyph61"
         d="M 554,8 C 527,1 499,-5 471,-10 442,-14 409,-16 372,-16 228,-16 156,66 156,229 L 156,951 31,951 31,1082 163,1082 216,1324 336,1324 336,1082 536,1082 536,951 336,951 336,268 C 336,216 345,180 362,159 379,138 408,127 450,127 467,127 484,128 501,131 517,134 535,137 554,141 L 554,8 Z"
         horiz-adv-x="531"
         unicode="t" /><glyph
         id="glyph63"
         d="M 950,299 C 950,248 940,203 921,164 901,124 872,91 835,64 798,37 752,16 698,2 643,-13 581,-20 511,-20 448,-20 392,-15 342,-6 291,4 247,20 209,41 171,62 139,91 114,126 88,161 69,203 57,254 L 216,285 C 231,227 263,185 311,158 359,131 426,117 511,117 550,117 585,120 618,125 650,130 678,140 701,153 724,166 743,183 756,205 769,226 775,253 775,285 775,318 767,345 752,366 737,387 715,404 688,418 661,432 628,444 589,455 550,465 507,476 460,489 417,500 374,513 331,527 288,541 250,560 216,583 181,606 153,634 132,668 111,702 100,745 100,796 100,895 135,970 206,1022 276,1073 378,1099 513,1099 632,1099 727,1078 798,1036 868,994 912,927 931,834 L 769,814 C 763,842 752,866 736,885 720,904 701,919 678,931 655,942 630,951 602,956 573,961 544,963 513,963 432,963 372,951 333,926 294,901 275,864 275,814 275,785 282,761 297,742 311,723 331,707 357,694 382,681 413,669 449,660 485,650 525,640 568,629 597,622 626,614 656,606 686,597 715,587 744,576 772,564 799,550 824,535 849,519 870,500 889,478 908,456 923,430 934,401 945,372 950,338 950,299 Z"
         horiz-adv-x="927"
         unicode="s" /><glyph
         id="glyph65"
         d="M 142,0 L 142,830 C 142,853 142,876 142,900 141,923 141,946 140,968 139,990 139,1011 138,1030 137,1049 137,1067 136,1082 L 306,1082 C 307,1067 308,1049 309,1030 310,1010 311,990 312,969 313,948 313,929 314,910 314,891 314,874 314,861 L 318,861 C 331,902 344,938 359,969 373,999 390,1024 409,1044 428,1063 451,1078 478,1088 505,1097 537,1102 575,1102 590,1102 604,1101 617,1099 630,1096 641,1094 648,1092 L 648,927 C 636,930 622,933 606,935 590,936 572,937 552,937 511,937 476,928 447,909 418,890 394,865 376,832 357,799 344,759 335,714 326,668 322,618 322,564 L 322,0 142,0 Z"
         horiz-adv-x="556"
         unicode="r" /><glyph
         id="glyph67"
         d="M 484,-20 C 347,-20 246,26 182,119 118,212 86,351 86,536 86,724 119,865 185,960 250,1055 350,1102 484,1102 529,1102 568,1098 603,1090 637,1082 668,1070 695,1055 722,1039 745,1019 766,996 786,973 804,945 821,914 L 823,914 C 823,931 824,949 825,970 826,990 827,1009 828,1027 829,1045 830,1061 831,1074 832,1087 834,1094 835,1096 L 1008,1096 C 1007,1085 1005,1055 1004,1007 1002,959 1001,890 1001,801 L 1001,-425 821,-425 821,14 C 821,31 821,49 822,68 822,87 822,104 823,121 824,140 824,159 825,178 L 823,178 C 806,144 787,115 766,90 745,65 720,44 693,28 666,11 635,-1 601,-9 566,-16 527,-20 484,-20 Z M 821,554 C 821,633 814,699 801,752 787,805 768,848 743,880 718,912 687,935 652,949 616,962 576,969 532,969 486,969 447,961 414,944 381,927 355,901 335,866 314,831 299,786 290,733 280,679 275,615 275,542 275,470 280,407 289,354 298,301 312,257 333,222 353,187 379,162 412,145 444,128 483,119 530,119 570,119 608,125 643,138 678,150 709,172 736,205 762,237 783,281 798,338 813,394 821,466 821,554 Z"
         horiz-adv-x="954"
         unicode="q" /><glyph
         id="glyph69"
         d="M 1053,546 C 1053,464 1046,388 1033,319 1020,250 998,190 967,140 936,90 895,51 844,23 793,-6 730,-20 655,-20 578,-20 510,-5 452,24 394,53 350,101 319,168 L 314,168 C 315,167 315,161 316,150 316,139 316,126 317,110 317,94 317,76 318,57 318,37 318,17 318,-2 L 318,-425 138,-425 138,861 C 138,887 138,912 138,936 137,960 137,982 136,1002 135,1021 135,1038 134,1052 133,1066 133,1076 132,1082 L 306,1082 C 307,1080 308,1073 309,1061 310,1049 311,1035 312,1018 313,1001 314,982 315,963 316,944 316,925 316,908 L 320,908 C 337,943 356,972 377,997 398,1021 423,1041 450,1057 477,1072 508,1084 542,1091 575,1098 613,1101 655,1101 730,1101 793,1088 844,1061 895,1034 936,997 967,949 998,900 1020,842 1033,774 1046,705 1053,629 1053,546 Z M 864,542 C 864,609 860,668 852,720 844,772 830,816 811,852 791,888 765,915 732,934 699,953 658,962 609,962 569,962 531,956 496,945 461,934 430,912 404,880 377,848 356,804 341,748 326,691 318,618 318,528 318,451 324,387 337,334 350,281 368,238 393,205 417,172 447,149 483,135 519,120 560,113 607,113 657,113 699,123 732,142 765,161 791,189 811,226 830,263 844,308 852,361 860,414 864,474 864,542 Z"
         horiz-adv-x="953"
         unicode="p" /><glyph
         id="glyph71"
         d="M 1053,542 C 1053,353 1011,212 928,119 845,26 724,-20 565,-20 490,-20 422,-9 363,14 304,37 254,71 213,118 172,165 140,223 119,294 97,364 86,447 86,542 86,915 248,1102 571,1102 655,1102 728,1090 789,1067 850,1044 900,1009 939,962 978,915 1006,857 1025,787 1044,717 1053,635 1053,542 Z M 864,542 C 864,626 858,695 845,750 832,805 813,848 788,881 763,914 732,937 696,950 660,963 619,969 574,969 528,969 487,962 450,949 413,935 381,912 355,879 329,846 309,802 296,747 282,692 275,624 275,542 275,458 282,389 297,334 312,279 332,235 358,202 383,169 414,146 449,133 484,120 522,113 563,113 609,113 651,120 688,133 725,146 757,168 783,201 809,234 829,278 843,333 857,388 864,458 864,542 Z"
         horiz-adv-x="980"
         unicode="o" /><glyph
         id="glyph73"
         d="M 825,0 L 825,686 C 825,739 821,783 814,818 806,853 793,882 776,904 759,925 736,941 708,950 679,959 644,963 602,963 559,963 521,956 487,941 452,926 423,904 399,876 374,847 355,812 342,771 329,729 322,681 322,627 L 322,0 142,0 142,851 C 142,874 142,898 142,923 141,948 141,971 140,994 139,1016 139,1035 138,1051 137,1067 137,1077 136,1082 L 306,1082 C 307,1079 307,1070 308,1055 309,1040 310,1024 311,1005 312,986 312,966 313,947 314,927 314,910 314,897 L 317,897 C 334,928 353,957 374,982 395,1007 419,1029 446,1047 473,1064 505,1078 540,1088 575,1097 616,1102 663,1102 723,1102 775,1095 818,1080 861,1065 897,1043 925,1012 953,981 974,942 987,894 1000,845 1006,788 1006,721 L 1006,0 825,0 Z"
         horiz-adv-x="900"
         unicode="n" /><glyph
         id="glyph75"
         d="M 768,0 L 768,686 C 768,739 765,783 758,818 751,853 740,882 725,904 709,925 688,941 663,950 638,959 607,963 570,963 532,963 498,956 467,941 436,926 410,904 389,876 367,847 350,812 339,771 327,729 321,681 321,627 L 321,0 142,0 142,851 C 142,874 142,898 142,923 141,948 141,971 140,994 139,1016 139,1035 138,1051 137,1067 137,1077 136,1082 L 306,1082 C 307,1079 307,1070 308,1055 309,1040 310,1024 311,1005 312,986 312,966 313,947 314,927 314,910 314,897 L 317,897 C 333,928 350,957 369,982 388,1007 410,1029 435,1047 460,1064 488,1078 521,1088 553,1097 590,1102 633,1102 715,1102 780,1086 828,1053 875,1020 908,968 927,897 L 930,897 C 946,928 964,957 984,982 1004,1007 1027,1029 1054,1047 1081,1064 1111,1078 1144,1088 1177,1097 1215,1102 1258,1102 1313,1102 1360,1095 1400,1080 1439,1065 1472,1043 1497,1012 1522,981 1541,942 1553,894 1565,845 1571,788 1571,721 L 1571,0 1393,0 1393,686 C 1393,739 1390,783 1383,818 1376,853 1365,882 1350,904 1334,925 1313,941 1288,950 1263,959 1232,963 1195,963 1157,963 1123,956 1092,942 1061,927 1035,906 1014,878 992,850 975,815 964,773 952,731 946,682 946,627 L 946,0 768,0 Z"
         horiz-adv-x="1456"
         unicode="m" /><glyph
         id="glyph77"
         d="M 138,0 L 138,1484 318,1484 318,0 138,0 Z"
         horiz-adv-x="187"
         unicode="l" /><glyph
         id="glyph79"
         d="M 137,1312 L 137,1484 317,1484 317,1312 137,1312 Z M 317,-132 C 317,-174 314,-212 307,-247 300,-283 287,-313 269,-339 251,-365 227,-386 196,-401 165,-416 125,-423 77,-423 54,-423 32,-423 11,-423 -11,-423 -31,-421 -50,-416 L -50,-277 C -41,-278 -31,-280 -19,-281 -7,-282 3,-283 12,-283 37,-283 58,-280 75,-273 91,-266 104,-256 113,-242 122,-227 129,-209 132,-187 135,-164 137,-138 137,-107 L 137,1082 317,1082 317,-132 Z"
         horiz-adv-x="372"
         unicode="j" /><glyph
         id="glyph81"
         d="M 137,1312 L 137,1484 317,1484 317,1312 137,1312 Z M 137,0 L 137,1082 317,1082 317,0 137,0 Z"
         horiz-adv-x="187"
         unicode="i" /><glyph
         id="glyph83"
         d="M 361,951 L 361,0 181,0 181,951 29,951 29,1082 181,1082 181,1204 C 181,1243 185,1280 192,1314 199,1347 213,1377 233,1402 252,1427 279,1446 313,1461 347,1475 391,1482 445,1482 466,1482 489,1481 512,1479 535,1477 555,1474 572,1470 L 572,1333 C 561,1335 548,1337 533,1339 518,1340 504,1341 492,1341 465,1341 444,1337 427,1330 410,1323 396,1312 387,1299 377,1285 370,1268 367,1248 363,1228 361,1205 361,1179 L 361,1082 572,1082 572,951 361,951 Z"
         horiz-adv-x="557"
         unicode="f" /><glyph
         id="glyph85"
         d="M 276,503 C 276,446 282,394 294,347 305,299 323,258 348,224 372,189 403,163 441,144 479,125 525,115 578,115 656,115 719,131 766,162 813,193 844,233 861,281 L 1019,236 C 1008,206 992,176 972,146 951,115 924,88 890,64 856,39 814,19 763,4 712,-12 650,-20 578,-20 418,-20 296,28 213,123 129,218 87,360 87,548 87,649 100,735 125,806 150,876 185,933 229,977 273,1021 324,1053 383,1073 442,1092 504,1102 571,1102 662,1102 738,1087 799,1058 860,1029 909,988 946,937 983,885 1009,824 1025,754 1040,684 1048,608 1048,527 L 1048,503 276,503 Z M 862,641 C 852,755 823,838 775,891 727,943 658,969 568,969 538,969 507,964 474,955 441,945 410,928 382,903 354,878 330,845 311,803 292,760 281,706 278,641 L 862,641 Z"
         horiz-adv-x="980"
         unicode="e" /><glyph
         id="glyph87"
         d="M 821,174 C 788,105 744,55 689,25 634,-5 565,-20 484,-20 347,-20 247,26 183,118 118,210 86,349 86,536 86,913 219,1102 484,1102 566,1102 634,1087 689,1057 744,1027 788,979 821,914 L 823,914 C 823,921 823,931 823,946 822,960 822,975 822,991 821,1006 821,1021 821,1035 821,1049 821,1059 821,1065 L 821,1484 1001,1484 1001,223 C 1001,197 1001,172 1002,148 1002,124 1002,102 1003,82 1004,62 1004,45 1005,31 1006,16 1006,6 1007,0 L 835,0 C 834,7 833,16 832,29 831,41 830,55 829,71 828,87 827,104 826,122 825,139 825,157 825,174 L 821,174 Z M 275,542 C 275,467 280,403 289,350 298,297 313,253 334,219 355,184 381,159 413,143 445,127 484,119 530,119 577,119 619,127 656,142 692,157 722,182 747,217 771,251 789,296 802,351 815,406 821,474 821,554 821,631 815,696 802,749 789,802 771,844 746,877 721,910 691,933 656,948 620,962 579,969 532,969 488,969 450,961 418,946 386,931 359,906 338,872 317,838 301,794 291,740 280,685 275,619 275,542 Z"
         horiz-adv-x="954"
         unicode="d" /><glyph
         id="glyph89"
         d="M 275,546 C 275,484 280,427 289,375 298,323 313,278 334,241 355,203 384,174 419,153 454,132 497,122 548,122 612,122 666,139 709,173 752,206 778,258 788,328 L 970,328 C 964,283 951,239 931,197 911,155 884,118 850,86 815,54 773,28 724,9 675,-10 618,-20 553,-20 468,-20 396,-6 337,23 278,52 230,91 193,142 156,192 129,251 112,320 95,388 87,462 87,542 87,615 93,679 105,735 117,790 134,839 156,881 177,922 203,957 232,986 261,1014 293,1037 328,1054 362,1071 398,1083 436,1091 474,1098 512,1102 551,1102 612,1102 666,1094 713,1077 760,1060 801,1038 836,1009 870,980 898,945 919,906 940,867 955,824 964,779 L 779,765 C 770,825 746,873 708,908 670,943 616,961 546,961 495,961 452,953 418,936 383,919 355,893 334,859 313,824 298,781 289,729 280,677 275,616 275,546 Z"
         horiz-adv-x="875"
         unicode="c" /><glyph
         id="glyph91"
         d="M 414,-20 C 305,-20 224,9 169,66 114,124 87,203 87,303 87,375 101,434 128,480 155,526 190,562 234,588 277,614 327,632 383,642 439,652 496,657 554,657 L 797,657 797,717 C 797,762 792,800 783,832 774,863 759,889 740,908 721,928 697,942 668,951 639,960 604,965 565,965 530,965 499,963 471,958 443,953 419,944 398,931 377,918 361,900 348,878 335,855 327,827 323,793 L 135,810 C 142,853 154,892 173,928 192,963 218,994 253,1020 287,1046 330,1066 382,1081 433,1095 496,1102 569,1102 705,1102 807,1071 876,1009 945,946 979,856 979,738 L 979,272 C 979,219 986,179 1000,152 1014,125 1041,111 1080,111 1090,111 1100,112 1110,113 1120,114 1130,116 1139,118 L 1139,6 C 1116,1 1094,-3 1072,-6 1049,-9 1025,-10 1000,-10 966,-10 937,-5 913,4 888,13 868,26 853,45 838,63 826,86 818,113 810,140 805,171 803,207 L 797,207 C 778,172 757,141 734,113 711,85 684,61 653,42 622,22 588,7 549,-4 510,-15 465,-20 414,-20 Z M 455,115 C 512,115 563,125 606,146 649,167 684,194 713,226 741,259 762,294 776,332 790,371 797,408 797,443 L 797,531 600,531 C 556,531 514,528 475,522 435,517 400,506 370,489 340,472 316,449 299,418 281,388 272,349 272,300 272,241 288,195 320,163 351,131 396,115 455,115 Z"
         horiz-adv-x="1060"
         unicode="a" /><glyph
         id="glyph93"
         d="M 720,1253 L 720,0 530,0 530,1253 46,1253 46,1409 1204,1409 1204,1253 720,1253 Z"
         horiz-adv-x="1139"
         unicode="T" /><glyph
         id="glyph95"
         d="M 1272,389 C 1272,330 1261,275 1238,225 1215,175 1179,132 1131,96 1083,59 1023,31 950,11 877,-10 790,-20 690,-20 515,-20 378,11 280,72 182,133 120,222 93,338 L 278,375 C 287,338 302,305 321,275 340,245 367,219 400,198 433,176 473,159 522,147 571,135 629,129 697,129 754,129 806,134 853,144 900,153 941,168 975,188 1009,208 1036,234 1055,266 1074,297 1083,335 1083,379 1083,425 1073,462 1052,491 1031,520 1001,543 963,562 925,581 880,596 827,609 774,622 716,635 652,650 613,659 573,668 534,679 494,689 456,701 420,716 383,730 349,747 317,766 285,785 257,809 234,836 211,863 192,894 179,930 166,965 159,1006 159,1053 159,1120 173,1177 200,1225 227,1272 264,1311 312,1342 360,1373 417,1395 482,1409 547,1423 618,1430 694,1430 781,1430 856,1423 918,1410 980,1396 1032,1375 1075,1348 1118,1321 1152,1287 1178,1247 1203,1206 1224,1159 1239,1106 L 1051,1073 C 1042,1107 1028,1137 1011,1164 993,1191 970,1213 941,1231 912,1249 878,1263 837,1272 796,1281 747,1286 692,1286 627,1286 572,1280 528,1269 483,1257 448,1241 421,1221 394,1201 374,1178 363,1151 351,1124 345,1094 345,1063 345,1021 356,987 377,960 398,933 426,910 462,892 498,874 540,859 587,847 634,835 685,823 738,811 781,801 825,791 868,781 911,770 952,758 991,744 1030,729 1067,712 1102,693 1136,674 1166,650 1191,622 1216,594 1236,561 1251,523 1265,485 1272,440 1272,389 Z"
         horiz-adv-x="1139"
         unicode="S" /><glyph
         id="glyph97"
         d="M 1495,711 C 1495,612 1482,521 1457,439 1431,356 1394,284 1346,222 1297,160 1238,110 1168,71 1097,32 1017,6 928,-6 942,-49 958,-85 976,-115 993,-145 1013,-169 1036,-189 1059,-207 1084,-221 1112,-231 1139,-239 1170,-244 1204,-244 1223,-244 1243,-243 1264,-240 1285,-237 1304,-234 1319,-231 L 1319,-365 C 1294,-371 1266,-376 1236,-381 1205,-385 1174,-387 1141,-387 1084,-387 1034,-378 991,-361 948,-344 911,-319 879,-287 846,-255 818,-216 795,-170 772,-123 751,-71 733,-12 628,-12 535,7 456,46 376,84 310,136 257,200 204,265 164,340 137,427 110,513 97,607 97,709 97,819 112,919 143,1008 174,1097 219,1172 278,1235 337,1297 411,1346 498,1379 585,1413 684,1430 797,1430 909,1430 1009,1413 1096,1379 1183,1345 1256,1297 1315,1234 1374,1171 1418,1096 1449,1007 1480,918 1495,820 1495,711 Z M 1300,711 C 1300,796 1289,873 1268,942 1246,1011 1214,1071 1172,1120 1129,1169 1077,1207 1014,1234 951,1261 879,1274 797,1274 713,1274 639,1261 576,1234 513,1207 460,1169 418,1120 375,1071 344,1011 323,942 302,873 291,796 291,711 291,626 302,549 324,479 345,408 377,348 420,297 462,246 515,206 578,178 641,149 713,135 795,135 883,135 959,149 1023,178 1086,207 1139,247 1180,298 1221,349 1251,409 1271,480 1290,551 1300,628 1300,711 Z"
         horiz-adv-x="1377"
         unicode="Q" /><glyph
         id="glyph99"
         d="M 792,1274 C 712,1274 641,1261 580,1234 518,1207 466,1169 425,1120 383,1071 351,1011 330,942 309,873 298,796 298,711 298,626 310,549 333,479 356,408 389,348 432,297 475,246 527,207 590,179 652,151 722,137 800,137 855,137 905,144 950,159 995,173 1035,193 1072,219 1108,245 1140,276 1169,312 1198,347 1223,387 1245,430 L 1401,352 C 1376,299 1344,250 1307,205 1270,160 1226,120 1176,87 1125,54 1068,28 1005,9 941,-10 870,-20 791,-20 677,-20 577,-2 492,35 406,71 334,122 277,187 219,252 176,329 147,418 118,507 104,605 104,711 104,821 119,920 150,1009 180,1098 224,1173 283,1236 341,1298 413,1346 498,1380 583,1413 681,1430 790,1430 940,1430 1065,1401 1166,1342 1267,1283 1341,1196 1388,1081 L 1207,1021 C 1194,1054 1176,1086 1153,1117 1130,1147 1102,1174 1068,1197 1034,1220 994,1239 949,1253 903,1267 851,1274 792,1274 Z"
         horiz-adv-x="1297"
         unicode="C" /><glyph
         id="glyph101"
         d="M 91,464 L 91,624 591,624 591,464 91,464 Z"
         horiz-adv-x="504"
         unicode="-" /><glyph
         id="glyph103"
         horiz-adv-x="556"
         unicode=" " /></font></defs><defs
     id="defs105"><font
       horiz-adv-x="2048"
       id="EmbeddedFont_3"
       horiz-origin-x="0"
       horiz-origin-y="0"
       vert-origin-x="45"
       vert-origin-y="90"
       vert-adv-y="90"><font-face
         id="font-face108"
         descent="450"
         ascent="1826"
         font-style="normal"
         font-weight="normal"
         units-per-em="2048"
         font-family="Liberation Serif embedded" /><missing-glyph
         id="missing-glyph110"
         d="M 0,0 L 2047,0 2047,2047 0,2047 0,0 Z"
         horiz-adv-x="2048" /><glyph
         id="glyph112"
         d="M 260,473 L 260,455 C 260,406 264,360 271,315 278,270 292,231 313,197 334,162 363,135 401,115 439,94 489,84 551,84 571,84 592,85 614,87 636,88 658,90 680,93 702,96 723,99 744,102 765,105 784,109 801,113 L 801,57 C 786,47 767,38 746,29 724,20 700,11 674,4 648,-3 620,-9 591,-14 562,-18 532,-20 502,-20 424,-20 358,-9 305,12 251,33 207,65 174,107 141,149 117,201 102,263 87,325 80,396 80,477 80,641 114,763 183,844 252,925 350,965 477,965 527,965 574,958 618,945 661,932 699,909 732,878 765,847 791,805 810,752 829,699 838,634 838,555 L 838,473 260,473 Z M 477,885 C 440,885 408,877 381,862 354,846 331,824 314,795 296,766 283,732 275,691 266,650 262,604 262,553 L 664,553 C 664,604 661,650 656,691 650,732 640,766 626,795 611,824 592,846 568,862 544,877 514,885 477,885 Z M 382,1119 L 382,1152 578,1424 791,1424 791,1387 437,1119 382,1119 Z"
         horiz-adv-x="742"
         unicode="é" /><glyph
         id="glyph114"
         d="M 313,268 C 313,213 326,170 351,141 376,111 416,96 473,96 510,96 549,99 589,104 629,109 668,116 705,127 L 705,870 563,895 563,940 870,940 870,70 989,45 989,0 715,0 707,76 C 688,65 665,54 638,43 611,32 584,21 555,12 526,3 496,-5 467,-11 438,-17 411,-20 387,-20 351,-20 318,-15 289,-5 260,5 235,21 214,43 193,65 176,94 165,129 153,164 147,206 147,256 L 147,870 27,895 27,940 313,940 313,268 Z"
         horiz-adv-x="980"
         unicode="u" /><glyph
         id="glyph116"
         d="M 664,965 L 664,711 621,711 563,821 C 544,821 524,820 503,817 482,814 460,811 439,807 418,802 397,797 378,791 358,785 341,779 326,772 L 326,70 487,45 487,0 41,0 41,45 160,70 160,870 41,895 41,940 315,940 324,823 C 339,836 360,850 387,867 414,883 443,898 474,913 505,928 536,940 567,950 598,960 625,965 649,965 L 664,965 Z"
         horiz-adv-x="636"
         unicode="r" /><glyph
         id="glyph118"
         d="M 946,475 C 946,316 910,193 839,108 768,23 657,-20 506,-20 365,-20 258,22 186,107 114,192 78,314 78,475 78,634 114,755 186,839 258,923 367,965 514,965 657,965 764,924 837,842 910,759 946,637 946,475 Z M 766,475 C 766,540 762,598 753,649 744,700 730,743 710,778 689,813 662,839 629,858 596,876 555,885 506,885 457,885 416,876 384,858 352,839 327,813 308,778 289,743 276,700 269,649 262,598 258,540 258,475 258,410 262,351 269,300 276,249 289,205 308,170 327,134 352,107 384,88 416,69 457,59 506,59 555,59 596,69 629,88 662,107 689,134 710,170 730,205 744,249 753,300 762,351 766,410 766,475 Z"
         horiz-adv-x="875"
         unicode="o" /><glyph
         id="glyph120"
         d="M 324,864 C 343,875 365,886 391,898 416,910 443,921 471,931 499,941 527,949 555,956 583,962 609,965 633,965 669,965 702,960 732,950 762,940 788,924 810,902 831,880 848,851 861,816 873,781 879,738 879,688 L 879,70 993,45 993,0 588,0 588,45 713,70 713,670 C 713,725 700,769 673,801 646,832 604,848 547,848 528,848 509,847 488,845 467,843 447,841 427,838 407,835 388,832 371,829 353,825 338,822 326,819 L 326,70 453,45 453,0 47,0 47,45 160,70 160,870 47,895 47,940 315,940 324,864 Z"
         horiz-adv-x="1007"
         unicode="n" /><glyph
         id="glyph122"
         d="M 326,864 C 345,875 367,886 393,898 418,910 445,921 472,931 499,941 527,949 555,956 583,962 609,965 633,965 679,965 722,956 761,939 800,922 829,894 848,856 869,868 895,881 925,894 955,907 986,918 1019,929 1051,940 1083,948 1115,955 1146,962 1175,965 1200,965 1236,965 1269,960 1298,950 1327,940 1353,924 1374,902 1395,880 1411,851 1423,816 1434,781 1440,738 1440,688 L 1440,70 1561,45 1561,0 1134,0 1134,45 1274,70 1274,670 C 1274,725 1262,768 1237,798 1212,827 1171,842 1114,842 1097,842 1077,841 1054,838 1031,835 1008,832 985,829 962,826 940,822 919,818 898,813 880,810 866,807 877,771 883,731 883,688 L 883,70 1024,45 1024,0 578,0 578,45 717,70 717,670 C 717,725 703,768 675,798 646,827 604,842 547,842 528,842 509,841 489,839 468,837 448,835 429,832 409,829 390,826 373,823 355,819 340,816 328,813 L 328,70 469,45 469,0 43,0 43,45 162,70 162,870 43,895 43,940 318,940 326,864 Z"
         horiz-adv-x="1483"
         unicode="m" /><glyph
         id="glyph124"
         d="M 104,186 L 104,289 913,680 104,1071 104,1174 1057,705 1057,655 104,186 Z"
         horiz-adv-x="927"
         unicode="&gt;" /><glyph
         id="glyph126"
         d="M 102,655 L 102,705 1055,1174 1055,1071 246,680 1055,289 1055,186 102,655 Z"
         horiz-adv-x="927"
         unicode="&lt;" /></font></defs><defs
     id="defs128"><font
       horiz-adv-x="2048"
       id="EmbeddedFont_4"
       horiz-origin-x="0"
       horiz-origin-y="0"
       vert-origin-x="45"
       vert-origin-y="90"
       vert-adv-y="90"><font-face
         id="font-face131"
         descent="635"
         ascent="1879"
         font-style="normal"
         font-weight="normal"
         units-per-em="2048"
         font-family="StarSymbol embedded" /><missing-glyph
         id="missing-glyph133"
         d="M 0,0 L 2047,0 2047,2047 0,2047 0,0 Z"
         horiz-adv-x="2048" /><glyph
         id="glyph135"
         d="M 813,0 C 632,0 489,54 383,161 276,268 223,411 223,592 223,773 276,916 383,1023 489,1130 632,1184 813,1184 992,1184 1136,1130 1245,1023 1353,916 1407,772 1407,592 1407,412 1353,268 1245,161 1136,54 992,0 813,0 Z"
         horiz-adv-x="1191"
         unicode="●" /><glyph
         id="glyph137"
         d="M -4,459 L 1135,459 1135,606 -4,606 -4,459 Z"
         horiz-adv-x="1165"
         unicode="–" /></font>
</defs>
</svg>
